  0
SECTION
  2
HEADER
  9
$ACADVER
  1
AC1015
  9
$ACADMAINTVER
 70
     6
  9
$DWGCODEPAGE
  3
ANSI_1252
  9
$INSBASE
 10
0.0
 20
0.0
 30
0.0
  9
$EXTMIN
 10
51.25275221177952
 20
-67.04148115643906
 30
-0.0000000349181948
  9
$EXTMAX
 10
84.26367472363503
 20
-43.0529916908099
 30
0.0000000814935746
  9
$LIMMIN
 10
0.0
 20
0.0
  9
$LIMMAX
 10
12.0
 20
9.0
  9
$ORTHOMODE
 70
     0
  9
$REGENMODE
 70
     1
  9
$FILLMODE
 70
     1
  9
$QTEXTMODE
 70
     0
  9
$MIRRTEXT
 70
     1
  9
$LTSCALE
 40
1.0
  9
$ATTMODE
 70
     1
  9
$TEXTSIZE
 40
0.2
  9
$TRACEWID
 40
0.05
  9
$TEXTSTYLE
  7
STANDARD
  9
$CLAYER
  8
BEZEL
  9
$CELTYPE
  6
BYLAYER
  9
$CECOLOR
 62
   256
  9
$CELTSCALE
 40
1.0
  9
$DISPSILH
 70
     0
  9
$DIMSCALE
 40
1.0
  9
$DIMASZ
 40
0.18
  9
$DIMEXO
 40
0.0625
  9
$DIMDLI
 40
0.38
  9
$DIMRND
 40
0.0
  9
$DIMDLE
 40
0.0
  9
$DIMEXE
 40
0.18
  9
$DIMTP
 40
0.0
  9
$DIMTM
 40
0.0
  9
$DIMTXT
 40
0.18
  9
$DIMCEN
 40
0.09
  9
$DIMTSZ
 40
0.0
  9
$DIMTOL
 70
     0
  9
$DIMLIM
 70
     0
  9
$DIMTIH
 70
     1
  9
$DIMTOH
 70
     1
  9
$DIMSE1
 70
     0
  9
$DIMSE2
 70
     0
  9
$DIMTAD
 70
     0
  9
$DIMZIN
 70
     0
  9
$DIMBLK
  1

  9
$DIMASO
 70
     1
  9
$DIMSHO
 70
     1
  9
$DIMPOST
  1

  9
$DIMAPOST
  1

  9
$DIMALT
 70
     0
  9
$DIMALTD
 70
     2
  9
$DIMALTF
 40
25.4
  9
$DIMLFAC
 40
1.0
  9
$DIMTOFL
 70
     0
  9
$DIMTVP
 40
0.0
  9
$DIMTIX
 70
     0
  9
$DIMSOXD
 70
     0
  9
$DIMSAH
 70
     0
  9
$DIMBLK1
  1

  9
$DIMBLK2
  1

  9
$DIMSTYLE
  2
STANDARD
  9
$DIMCLRD
 70
     0
  9
$DIMCLRE
 70
     0
  9
$DIMCLRT
 70
     0
  9
$DIMTFAC
 40
1.0
  9
$DIMGAP
 40
0.09
  9
$DIMJUST
 70
     0
  9
$DIMSD1
 70
     0
  9
$DIMSD2
 70
     0
  9
$DIMTOLJ
 70
     1
  9
$DIMTZIN
 70
     0
  9
$DIMALTZ
 70
     0
  9
$DIMALTTZ
 70
     0
  9
$DIMUPT
 70
     0
  9
$DIMDEC
 70
     3
  9
$DIMTDEC
 70
     3
  9
$DIMALTU
 70
     2
  9
$DIMALTTD
 70
     2
  9
$DIMTXSTY
  7
STANDARD
  9
$DIMAUNIT
 70
     0
  9
$DIMADEC
 70
     0
  9
$DIMALTRND
 40
0.0
  9
$DIMAZIN
 70
     0
  9
$DIMDSEP
 70
    46
  9
$DIMATFIT
 70
     3
  9
$DIMFRAC
 70
     0
  9
$DIMLDRBLK
  1

  9
$DIMLUNIT
 70
     2
  9
$DIMLWD
 70
    -2
  9
$DIMLWE
 70
    -2
  9
$DIMTMOVE
 70
     0
  9
$LUNITS
 70
     2
  9
$LUPREC
 70
     4
  9
$SKETCHINC
 40
0.1
  9
$FILLETRAD
 40
0.187
  9
$AUNITS
 70
     0
  9
$AUPREC
 70
     0
  9
$MENU
  1
acad
  9
$ELEVATION
 40
0.0
  9
$PELEVATION
 40
0.0
  9
$THICKNESS
 40
0.0
  9
$LIMCHECK
 70
     0
  9
$CHAMFERA
 40
0.5
  9
$CHAMFERB
 40
0.5
  9
$CHAMFERC
 40
1.0
  9
$CHAMFERD
 40
0.0
  9
$SKPOLY
 70
     0
  9
$TDCREATE
 40
2452200.721232638
  9
$TDUCREATE
 40
2452200.929565972
  9
$TDUPDATE
 40
2452705.754127789
  9
$TDUUPDATE
 40
2452705.962461123
  9
$TDINDWG
 40
19.5202444213
  9
$TDUSRTIMER
 40
19.5202444213
  9
$USRTIMER
 70
     1
  9
$ANGBASE
 50
0.0
  9
$ANGDIR
 70
     0
  9
$PDMODE
 70
     0
  9
$PDSIZE
 40
0.0
  9
$PLINEWID
 40
0.0
  9
$SPLFRAME
 70
     0
  9
$SPLINETYPE
 70
     6
  9
$SPLINESEGS
 70
     8
  9
$HANDSEED
  5
A214
  9
$SURFTAB1
 70
     6
  9
$SURFTAB2
 70
     6
  9
$SURFTYPE
 70
     6
  9
$SURFU
 70
     6
  9
$SURFV
 70
     6
  9
$UCSBASE
  2

  9
$UCSNAME
  2

  9
$UCSORG
 10
39.17704525271716
 20
-14.82732371801974
 30
0.0
  9
$UCSXDIR
 10
1.0
 20
0.0
 30
0.0
  9
$UCSYDIR
 10
0.0
 20
1.0
 30
0.0
  9
$UCSORTHOREF
  2

  9
$UCSORTHOVIEW
 70
     0
  9
$UCSORGTOP
 10
0.0
 20
0.0
 30
0.0
  9
$UCSORGBOTTOM
 10
0.0
 20
0.0
 30
0.0
  9
$UCSORGLEFT
 10
0.0
 20
0.0
 30
0.0
  9
$UCSORGRIGHT
 10
0.0
 20
0.0
 30
0.0
  9
$UCSORGFRONT
 10
0.0
 20
0.0
 30
0.0
  9
$UCSORGBACK
 10
0.0
 20
0.0
 30
0.0
  9
$PUCSBASE
  2

  9
$PUCSNAME
  2

  9
$PUCSORG
 10
0.0
 20
0.0
 30
0.0
  9
$PUCSXDIR
 10
1.0
 20
0.0
 30
0.0
  9
$PUCSYDIR
 10
0.0
 20
1.0
 30
0.0
  9
$PUCSORTHOREF
  2

  9
$PUCSORTHOVIEW
 70
     0
  9
$PUCSORGTOP
 10
0.0
 20
0.0
 30
0.0
  9
$PUCSORGBOTTOM
 10
0.0
 20
0.0
 30
0.0
  9
$PUCSORGLEFT
 10
0.0
 20
0.0
 30
0.0
  9
$PUCSORGRIGHT
 10
0.0
 20
0.0
 30
0.0
  9
$PUCSORGFRONT
 10
0.0
 20
0.0
 30
0.0
  9
$PUCSORGBACK
 10
0.0
 20
0.0
 30
0.0
  9
$USERI1
 70
     0
  9
$USERI2
 70
     0
  9
$USERI3
 70
     0
  9
$USERI4
 70
     0
  9
$USERI5
 70
     0
  9
$USERR1
 40
0.0
  9
$USERR2
 40
0.0
  9
$USERR3
 40
0.0
  9
$USERR4
 40
0.0
  9
$USERR5
 40
0.0
  9
$WORLDVIEW
 70
     1
  9
$SHADEDGE
 70
     3
  9
$SHADEDIF
 70
    70
  9
$TILEMODE
 70
     1
  9
$MAXACTVP
 70
    48
  9
$PINSBASE
 10
0.0
 20
0.0
 30
0.0
  9
$PLIMCHECK
 70
     0
  9
$PEXTMIN
 10
1.000000000000000E+20
 20
1.000000000000000E+20
 30
1.000000000000000E+20
  9
$PEXTMAX
 10
-1.000000000000000E+20
 20
-1.000000000000000E+20
 30
-1.000000000000000E+20
  9
$PLIMMIN
 10
0.0
 20
0.0
  9
$PLIMMAX
 10
12.0
 20
9.0
  9
$UNITMODE
 70
     0
  9
$VISRETAIN
 70
     1
  9
$PLINEGEN
 70
     0
  9
$PSLTSCALE
 70
     1
  9
$TREEDEPTH
 70
  3020
  9
$CMLSTYLE
  2
STANDARD
  9
$CMLJUST
 70
     0
  9
$CMLSCALE
 40
1.0
  9
$PROXYGRAPHICS
 70
     1
  9
$MEASUREMENT
 70
     0
  9
$CELWEIGHT
370
    -1
  9
$ENDCAPS
280
     0
  9
$JOINSTYLE
280
     0
  9
$LWDISPLAY
290
     1
  9
$INSUNITS
 70
     0
  9
$HYPERLINKBASE
  1

  9
$STYLESHEET
  1
monochrome.ctb
  9
$XEDIT
290
     1
  9
$CEPSNTYPE
380
     0
  9
$PSTYLEMODE
290
     1
  9
$FINGERPRINTGUID
  2
{D8B39E1C-095F-4101-B707-7B23D70CA46E}
  9
$VERSIONGUID
  2
{A4C6C155-C4F5-4395-8DD2-97335E56693B}
  9
$EXTNAMES
290
     1
  9
$PSVPSCALE
 40
0.0
  9
$OLESTARTUP
290
     0
  0
ENDSEC
  0
SECTION
  2
CLASSES
  0
CLASS
  1
LWPOLYLINE
  2
AcDbPolyline
  3
AutoCAD 2000
 90
    32768
280
     0
281
     1
  0
CLASS
  1
ACDBDICTIONARYWDFLT
  2
AcDbDictionaryWithDefault
  3
AutoCAD 2000
 90
        0
280
     0
281
     0
  0
CLASS
  1
ACDBPLACEHOLDER
  2
AcDbPlaceHolder
  3
AutoCAD 2000
 90
        0
280
     0
281
     0
  0
CLASS
  1
LAYOUT
  2
AcDbLayout
  3
AutoCAD 2000
 90
        0
280
     0
281
     0
  0
CLASS
  1
LONG_TRANSACTION
  2
AcDbLongTransaction
  3
AutoCAD 2000
 90
    32768
280
     0
281
     0
  0
CLASS
  1
LWPOLYLINE
  2
AcDbPolyline
  3
AutoCAD 2000
 90
    32768
280
     0
281
     1
  0
CLASS
  1
HATCH
  2
AcDbHatch
  3
AutoCAD 2000
 90
    32768
280
     0
281
     1
  0
CLASS
  1
XRECORD
  2
AcDbXrecord
  3
AutoCAD 2000
 90
    32768
280
     0
281
     0
  0
CLASS
  1
LONG_TRANSACTION
  2
AcDbLongTransaction
  3
AutoCAD 2000
 90
    32768
280
     0
281
     0
  0
CLASS
  1
LWPOLYLINE
  2
AcDbPolyline
  3
AutoCAD 2000
 90
    32768
280
     0
281
     1
  0
CLASS
  1
HATCH
  2
AcDbHatch
  3
AutoCAD 2000
 90
    32768
280
     0
281
     1
  0
CLASS
  1
XRECORD
  2
AcDbXrecord
  3
AutoCAD 2000
 90
    32768
280
     0
281
     0
  0
CLASS
  1
DICTIONARYVAR
  2
AcDbDictionaryVar
  3
AutoCAD 2000
 90
        0
280
     0
281
     0
  0
CLASS
  1
LONG_TRANSACTION
  2
AcDbLongTransaction
  3
AutoCAD 2000
 90
    32768
280
     0
281
     0
  0
CLASS
  1
LWPOLYLINE
  2
AcDbPolyline
  3
AutoCAD 2000
 90
    32768
280
     0
281
     1
  0
CLASS
  1
HATCH
  2
AcDbHatch
  3
AutoCAD 2000
 90
    32768
280
     0
281
     1
  0
CLASS
  1
XRECORD
  2
AcDbXrecord
  3
AutoCAD 2000
 90
    32768
280
     0
281
     0
  0
CLASS
  1
LONG_TRANSACTION
  2
AcDbLongTransaction
  3
AutoCAD 2000
 90
    32768
280
     0
281
     0
  0
CLASS
  1
LWPOLYLINE
  2
AcDbPolyline
  3
AutoCAD 2000
 90
    32768
280
     0
281
     1
  0
CLASS
  1
HATCH
  2
AcDbHatch
  3
AutoCAD 2000
 90
    32768
280
     0
281
     1
  0
CLASS
  1
XRECORD
  2
AcDbXrecord
  3
AutoCAD 2000
 90
    32768
280
     0
281
     0
  0
CLASS
  1
LONG_TRANSACTION
  2
AcDbLongTransaction
  3
AutoCAD 2000
 90
    32768
280
     0
281
     0
  0
CLASS
  1
LWPOLYLINE
  2
AcDbPolyline
  3
AutoCAD 2000
 90
    32768
280
     0
281
     1
  0
CLASS
  1
HATCH
  2
AcDbHatch
  3
AutoCAD 2000
 90
    32768
280
     0
281
     1
  0
CLASS
  1
XRECORD
  2
AcDbXrecord
  3
AutoCAD 2000
 90
    32768
280
     0
281
     0
  0
CLASS
  1
LONG_TRANSACTION
  2
AcDbLongTransaction
  3
AutoCAD 2000
 90
    32768
280
     0
281
     0
  0
CLASS
  1
LWPOLYLINE
  2
AcDbPolyline
  3
AutoCAD 2000
 90
    32768
280
     0
281
     1
  0
CLASS
  1
HATCH
  2
AcDbHatch
  3
AutoCAD 2000
 90
    32768
280
     0
281
     1
  0
CLASS
  1
XRECORD
  2
AcDbXrecord
  3
AutoCAD 2000
 90
    32768
280
     0
281
     0
  0
CLASS
  1
LONG_TRANSACTION
  2
AcDbLongTransaction
  3
AutoCAD 2000
 90
    32768
280
     0
281
     0
  0
CLASS
  1
LWPOLYLINE
  2
AcDbPolyline
  3
AutoCAD 2000
 90
    32768
280
     0
281
     1
  0
CLASS
  1
HATCH
  2
AcDbHatch
  3
AutoCAD 2000
 90
    32768
280
     0
281
     1
  0
CLASS
  1
XRECORD
  2
AcDbXrecord
  3
AutoCAD 2000
 90
    32768
280
     0
281
     0
  0
CLASS
  1
LONG_TRANSACTION
  2
AcDbLongTransaction
  3
AutoCAD 2000
 90
    32768
280
     0
281
     0
  0
CLASS
  1
LWPOLYLINE
  2
AcDbPolyline
  3
AutoCAD 2000
 90
    32768
280
     0
281
     1
  0
CLASS
  1
HATCH
  2
AcDbHatch
  3
AutoCAD 2000
 90
    32768
280
     0
281
     1
  0
CLASS
  1
XRECORD
  2
AcDbXrecord
  3
AutoCAD 2000
 90
    32768
280
     0
281
     0
  0
CLASS
  1
LONG_TRANSACTION
  2
AcDbLongTransaction
  3
AutoCAD 2000
 90
    32768
280
     0
281
     0
  0
CLASS
  1
LWPOLYLINE
  2
AcDbPolyline
  3
AutoCAD 2000
 90
    32768
280
     0
281
     1
  0
CLASS
  1
HATCH
  2
AcDbHatch
  3
AutoCAD 2000
 90
    32768
280
     0
281
     1
  0
CLASS
  1
XRECORD
  2
AcDbXrecord
  3
AutoCAD 2000
 90
    32768
280
     0
281
     0
  0
CLASS
  1
LONG_TRANSACTION
  2
AcDbLongTransaction
  3
AutoCAD 2000
 90
    32768
280
     0
281
     0
  0
CLASS
  1
LWPOLYLINE
  2
AcDbPolyline
  3
AutoCAD 2000
 90
    32768
280
     0
281
     1
  0
CLASS
  1
HATCH
  2
AcDbHatch
  3
AutoCAD 2000
 90
    32768
280
     0
281
     1
  0
CLASS
  1
XRECORD
  2
AcDbXrecord
  3
AutoCAD 2000
 90
    32768
280
     0
281
     0
  0
CLASS
  1
LONG_TRANSACTION
  2
AcDbLongTransaction
  3
AutoCAD 2000
 90
    32768
280
     0
281
     0
  0
CLASS
  1
LWPOLYLINE
  2
AcDbPolyline
  3
AutoCAD 2000
 90
    32768
280
     0
281
     1
  0
CLASS
  1
HATCH
  2
AcDbHatch
  3
AutoCAD 2000
 90
    32768
280
     0
281
     1
  0
CLASS
  1
XRECORD
  2
AcDbXrecord
  3
AutoCAD 2000
 90
    32768
280
     0
281
     0
  0
CLASS
  1
LONG_TRANSACTION
  2
AcDbLongTransaction
  3
AutoCAD 2000
 90
    32768
280
     0
281
     0
  0
CLASS
  1
LWPOLYLINE
  2
AcDbPolyline
  3
AutoCAD 2000
 90
    32768
280
     0
281
     1
  0
CLASS
  1
HATCH
  2
AcDbHatch
  3
AutoCAD 2000
 90
    32768
280
     0
281
     1
  0
CLASS
  1
XRECORD
  2
AcDbXrecord
  3
AutoCAD 2000
 90
    32768
280
     0
281
     0
  0
CLASS
  1
LONG_TRANSACTION
  2
AcDbLongTransaction
  3
AutoCAD 2000
 90
    32768
280
     0
281
     0
  0
CLASS
  1
LWPOLYLINE
  2
AcDbPolyline
  3
AutoCAD 2000
 90
    32768
280
     0
281
     1
  0
CLASS
  1
HATCH
  2
AcDbHatch
  3
AutoCAD 2000
 90
    32768
280
     0
281
     1
  0
CLASS
  1
XRECORD
  2
AcDbXrecord
  3
AutoCAD 2000
 90
    32768
280
     0
281
     0
  0
CLASS
  1
LONG_TRANSACTION
  2
AcDbLongTransaction
  3
AutoCAD 2000
 90
    32768
280
     0
281
     0
  0
CLASS
  1
LWPOLYLINE
  2
AcDbPolyline
  3
AutoCAD 2000
 90
    32768
280
     0
281
     1
  0
CLASS
  1
HATCH
  2
AcDbHatch
  3
AutoCAD 2000
 90
    32768
280
     0
281
     1
  0
CLASS
  1
XRECORD
  2
AcDbXrecord
  3
AutoCAD 2000
 90
    32768
280
     0
281
     0
  0
CLASS
  1
LONG_TRANSACTION
  2
AcDbLongTransaction
  3
AutoCAD 2000
 90
    32768
280
     0
281
     0
  0
CLASS
  1
LWPOLYLINE
  2
AcDbPolyline
  3
AutoCAD 2000
 90
    32768
280
     0
281
     1
  0
CLASS
  1
HATCH
  2
AcDbHatch
  3
AutoCAD 2000
 90
    32768
280
     0
281
     1
  0
CLASS
  1
XRECORD
  2
AcDbXrecord
  3
AutoCAD 2000
 90
    32768
280
     0
281
     0
  0
CLASS
  1
LONG_TRANSACTION
  2
AcDbLongTransaction
  3
AutoCAD 2000
 90
    32768
280
     0
281
     0
  0
CLASS
  1
LWPOLYLINE
  2
AcDbPolyline
  3
AutoCAD 2000
 90
    32768
280
     0
281
     1
  0
CLASS
  1
HATCH
  2
AcDbHatch
  3
AutoCAD 2000
 90
    32768
280
     0
281
     1
  0
CLASS
  1
XRECORD
  2
AcDbXrecord
  3
AutoCAD 2000
 90
    32768
280
     0
281
     0
  0
CLASS
  1
LONG_TRANSACTION
  2
AcDbLongTransaction
  3
AutoCAD 2000
 90
    32768
280
     0
281
     0
  0
CLASS
  1
LWPOLYLINE
  2
AcDbPolyline
  3
AutoCAD 2000
 90
    32768
280
     0
281
     1
  0
CLASS
  1
HATCH
  2
AcDbHatch
  3
AutoCAD 2000
 90
    32768
280
     0
281
     1
  0
CLASS
  1
XRECORD
  2
AcDbXrecord
  3
AutoCAD 2000
 90
    32768
280
     0
281
     0
  0
CLASS
  1
LONG_TRANSACTION
  2
AcDbLongTransaction
  3
AutoCAD 2000
 90
    32768
280
     0
281
     0
  0
CLASS
  1
LWPOLYLINE
  2
AcDbPolyline
  3
AutoCAD 2000
 90
    32768
280
     0
281
     1
  0
CLASS
  1
HATCH
  2
AcDbHatch
  3
AutoCAD 2000
 90
    32768
280
     0
281
     1
  0
CLASS
  1
XRECORD
  2
AcDbXrecord
  3
AutoCAD 2000
 90
    32768
280
     0
281
     0
  0
CLASS
  1
LONG_TRANSACTION
  2
AcDbLongTransaction
  3
AutoCAD 2000
 90
    32768
280
     0
281
     0
  0
CLASS
  1
LWPOLYLINE
  2
AcDbPolyline
  3
AutoCAD 2000
 90
    32768
280
     0
281
     1
  0
CLASS
  1
HATCH
  2
AcDbHatch
  3
AutoCAD 2000
 90
    32768
280
     0
281
     1
  0
CLASS
  1
XRECORD
  2
AcDbXrecord
  3
AutoCAD 2000
 90
    32768
280
     0
281
     0
  0
CLASS
  1
LONG_TRANSACTION
  2
AcDbLongTransaction
  3
AutoCAD 2000
 90
    32768
280
     0
281
     0
  0
CLASS
  1
LWPOLYLINE
  2
AcDbPolyline
  3
AutoCAD 2000
 90
    32768
280
     0
281
     1
  0
CLASS
  1
HATCH
  2
AcDbHatch
  3
AutoCAD 2000
 90
    32768
280
     0
281
     1
  0
CLASS
  1
XRECORD
  2
AcDbXrecord
  3
AutoCAD 2000
 90
    32768
280
     0
281
     0
  0
CLASS
  1
LONG_TRANSACTION
  2
AcDbLongTransaction
  3
AutoCAD 2000
 90
    32768
280
     0
281
     0
  0
CLASS
  1
LWPOLYLINE
  2
AcDbPolyline
  3
AutoCAD 2000
 90
    32768
280
     0
281
     1
  0
CLASS
  1
HATCH
  2
AcDbHatch
  3
AutoCAD 2000
 90
    32768
280
     0
281
     1
  0
CLASS
  1
XRECORD
  2
AcDbXrecord
  3
AutoCAD 2000
 90
    32768
280
     0
281
     0
  0
CLASS
  1
LONG_TRANSACTION
  2
AcDbLongTransaction
  3
AutoCAD 2000
 90
    32768
280
     0
281
     0
  0
CLASS
  1
LWPOLYLINE
  2
AcDbPolyline
  3
AutoCAD 2000
 90
    32768
280
     0
281
     1
  0
CLASS
  1
HATCH
  2
AcDbHatch
  3
AutoCAD 2000
 90
    32768
280
     0
281
     1
  0
CLASS
  1
XRECORD
  2
AcDbXrecord
  3
AutoCAD 2000
 90
    32768
280
     0
281
     0
  0
CLASS
  1
LONG_TRANSACTION
  2
AcDbLongTransaction
  3
AutoCAD 2000
 90
    32768
280
     0
281
     0
  0
CLASS
  1
LWPOLYLINE
  2
AcDbPolyline
  3
AutoCAD 2000
 90
    32768
280
     0
281
     1
  0
CLASS
  1
HATCH
  2
AcDbHatch
  3
AutoCAD 2000
 90
    32768
280
     0
281
     1
  0
CLASS
  1
XRECORD
  2
AcDbXrecord
  3
AutoCAD 2000
 90
    32768
280
     0
281
     0
  0
CLASS
  1
LONG_TRANSACTION
  2
AcDbLongTransaction
  3
AutoCAD 2000
 90
    32768
280
     0
281
     0
  0
CLASS
  1
LWPOLYLINE
  2
AcDbPolyline
  3
AutoCAD 2000
 90
    32768
280
     0
281
     1
  0
CLASS
  1
HATCH
  2
AcDbHatch
  3
AutoCAD 2000
 90
    32768
280
     0
281
     1
  0
CLASS
  1
XRECORD
  2
AcDbXrecord
  3
AutoCAD 2000
 90
    32768
280
     0
281
     0
  0
CLASS
  1
LONG_TRANSACTION
  2
AcDbLongTransaction
  3
AutoCAD 2000
 90
    32768
280
     0
281
     0
  0
CLASS
  1
LWPOLYLINE
  2
AcDbPolyline
  3
AutoCAD 2000
 90
    32768
280
     0
281
     1
  0
CLASS
  1
HATCH
  2
AcDbHatch
  3
AutoCAD 2000
 90
    32768
280
     0
281
     1
  0
CLASS
  1
XRECORD
  2
AcDbXrecord
  3
AutoCAD 2000
 90
    32768
280
     0
281
     0
  0
CLASS
  1
LONG_TRANSACTION
  2
AcDbLongTransaction
  3
AutoCAD 2000
 90
    32768
280
     0
281
     0
  0
CLASS
  1
LWPOLYLINE
  2
AcDbPolyline
  3
AutoCAD 2000
 90
    32768
280
     0
281
     1
  0
CLASS
  1
HATCH
  2
AcDbHatch
  3
AutoCAD 2000
 90
    32768
280
     0
281
     1
  0
CLASS
  1
XRECORD
  2
AcDbXrecord
  3
AutoCAD 2000
 90
    32768
280
     0
281
     0
  0
CLASS
  1
LONG_TRANSACTION
  2
AcDbLongTransaction
  3
AutoCAD 2000
 90
    32768
280
     0
281
     0
  0
CLASS
  1
LWPOLYLINE
  2
AcDbPolyline
  3
AutoCAD 2000
 90
    32768
280
     0
281
     1
  0
CLASS
  1
HATCH
  2
AcDbHatch
  3
AutoCAD 2000
 90
    32768
280
     0
281
     1
  0
CLASS
  1
XRECORD
  2
AcDbXrecord
  3
AutoCAD 2000
 90
    32768
280
     0
281
     0
  0
CLASS
  1
LONG_TRANSACTION
  2
AcDbLongTransaction
  3
AutoCAD 2000
 90
    32768
280
     0
281
     0
  0
CLASS
  1
LWPOLYLINE
  2
AcDbPolyline
  3
AutoCAD 2000
 90
    32768
280
     0
281
     1
  0
CLASS
  1
HATCH
  2
AcDbHatch
  3
AutoCAD 2000
 90
    32768
280
     0
281
     1
  0
CLASS
  1
XRECORD
  2
AcDbXrecord
  3
AutoCAD 2000
 90
    32768
280
     0
281
     0
  0
CLASS
  1
LONG_TRANSACTION
  2
AcDbLongTransaction
  3
AutoCAD 2000
 90
    32768
280
     0
281
     0
  0
CLASS
  1
LWPOLYLINE
  2
AcDbPolyline
  3
AutoCAD 2000
 90
    32768
280
     0
281
     1
  0
CLASS
  1
HATCH
  2
AcDbHatch
  3
AutoCAD 2000
 90
    32768
280
     0
281
     1
  0
CLASS
  1
XRECORD
  2
AcDbXrecord
  3
AutoCAD 2000
 90
    32768
280
     0
281
     0
  0
CLASS
  1
LONG_TRANSACTION
  2
AcDbLongTransaction
  3
AutoCAD 2000
 90
    32768
280
     0
281
     0
  0
CLASS
  1
LWPOLYLINE
  2
AcDbPolyline
  3
AutoCAD 2000
 90
    32768
280
     0
281
     1
  0
CLASS
  1
HATCH
  2
AcDbHatch
  3
AutoCAD 2000
 90
    32768
280
     0
281
     1
  0
CLASS
  1
XRECORD
  2
AcDbXrecord
  3
AutoCAD 2000
 90
    32768
280
     0
281
     0
  0
CLASS
  1
LONG_TRANSACTION
  2
AcDbLongTransaction
  3
AutoCAD 2000
 90
    32768
280
     0
281
     0
  0
CLASS
  1
LWPOLYLINE
  2
AcDbPolyline
  3
AutoCAD 2000
 90
    32768
280
     0
281
     1
  0
CLASS
  1
HATCH
  2
AcDbHatch
  3
AutoCAD 2000
 90
    32768
280
     0
281
     1
  0
CLASS
  1
XRECORD
  2
AcDbXrecord
  3
AutoCAD 2000
 90
    32768
280
     0
281
     0
  0
CLASS
  1
LONG_TRANSACTION
  2
AcDbLongTransaction
  3
AutoCAD 2000
 90
    32768
280
     0
281
     0
  0
CLASS
  1
LWPOLYLINE
  2
AcDbPolyline
  3
AutoCAD 2000
 90
    32768
280
     0
281
     1
  0
CLASS
  1
HATCH
  2
AcDbHatch
  3
AutoCAD 2000
 90
    32768
280
     0
281
     1
  0
CLASS
  1
XRECORD
  2
AcDbXrecord
  3
AutoCAD 2000
 90
    32768
280
     0
281
     0
  0
CLASS
  1
LONG_TRANSACTION
  2
AcDbLongTransaction
  3
AutoCAD 2000
 90
    32768
280
     0
281
     0
  0
CLASS
  1
LWPOLYLINE
  2
AcDbPolyline
  3
AutoCAD 2000
 90
    32768
280
     0
281
     1
  0
CLASS
  1
HATCH
  2
AcDbHatch
  3
AutoCAD 2000
 90
    32768
280
     0
281
     1
  0
CLASS
  1
XRECORD
  2
AcDbXrecord
  3
AutoCAD 2000
 90
    32768
280
     0
281
     0
  0
CLASS
  1
LONG_TRANSACTION
  2
AcDbLongTransaction
  3
AutoCAD 2000
 90
    32768
280
     0
281
     0
  0
CLASS
  1
LWPOLYLINE
  2
AcDbPolyline
  3
AutoCAD 2000
 90
    32768
280
     0
281
     1
  0
CLASS
  1
HATCH
  2
AcDbHatch
  3
AutoCAD 2000
 90
    32768
280
     0
281
     1
  0
CLASS
  1
XRECORD
  2
AcDbXrecord
  3
AutoCAD 2000
 90
    32768
280
     0
281
     0
  0
CLASS
  1
LONG_TRANSACTION
  2
AcDbLongTransaction
  3
AutoCAD 2000
 90
    32768
280
     0
281
     0
  0
CLASS
  1
LWPOLYLINE
  2
AcDbPolyline
  3
AutoCAD 2000
 90
    32768
280
     0
281
     1
  0
CLASS
  1
HATCH
  2
AcDbHatch
  3
AutoCAD 2000
 90
    32768
280
     0
281
     1
  0
CLASS
  1
XRECORD
  2
AcDbXrecord
  3
AutoCAD 2000
 90
    32768
280
     0
281
     0
  0
CLASS
  1
LONG_TRANSACTION
  2
AcDbLongTransaction
  3
AutoCAD 2000
 90
    32768
280
     0
281
     0
  0
CLASS
  1
LWPOLYLINE
  2
AcDbPolyline
  3
AutoCAD 2000
 90
    32768
280
     0
281
     1
  0
CLASS
  1
HATCH
  2
AcDbHatch
  3
AutoCAD 2000
 90
    32768
280
     0
281
     1
  0
CLASS
  1
XRECORD
  2
AcDbXrecord
  3
AutoCAD 2000
 90
    32768
280
     0
281
     0
  0
CLASS
  1
LONG_TRANSACTION
  2
AcDbLongTransaction
  3
AutoCAD 2000
 90
    32768
280
     0
281
     0
  0
CLASS
  1
LWPOLYLINE
  2
AcDbPolyline
  3
AutoCAD 2000
 90
    32768
280
     0
281
     1
  0
CLASS
  1
HATCH
  2
AcDbHatch
  3
AutoCAD 2000
 90
    32768
280
     0
281
     1
  0
CLASS
  1
XRECORD
  2
AcDbXrecord
  3
AutoCAD 2000
 90
    32768
280
     0
281
     0
  0
CLASS
  1
LONG_TRANSACTION
  2
AcDbLongTransaction
  3
AutoCAD 2000
 90
    32768
280
     0
281
     0
  0
CLASS
  1
LWPOLYLINE
  2
AcDbPolyline
  3
AutoCAD 2000
 90
    32768
280
     0
281
     1
  0
CLASS
  1
HATCH
  2
AcDbHatch
  3
AutoCAD 2000
 90
    32768
280
     0
281
     1
  0
CLASS
  1
XRECORD
  2
AcDbXrecord
  3
AutoCAD 2000
 90
    32768
280
     0
281
     0
  0
CLASS
  1
LONG_TRANSACTION
  2
AcDbLongTransaction
  3
AutoCAD 2000
 90
    32768
280
     0
281
     0
  0
CLASS
  1
LWPOLYLINE
  2
AcDbPolyline
  3
AutoCAD 2000
 90
    32768
280
     0
281
     1
  0
CLASS
  1
HATCH
  2
AcDbHatch
  3
AutoCAD 2000
 90
    32768
280
     0
281
     1
  0
CLASS
  1
XRECORD
  2
AcDbXrecord
  3
AutoCAD 2000
 90
    32768
280
     0
281
     0
  0
CLASS
  1
LONG_TRANSACTION
  2
AcDbLongTransaction
  3
AutoCAD 2000
 90
    32768
280
     0
281
     0
  0
CLASS
  1
LWPOLYLINE
  2
AcDbPolyline
  3
AutoCAD 2000
 90
    32768
280
     0
281
     1
  0
CLASS
  1
HATCH
  2
AcDbHatch
  3
AutoCAD 2000
 90
    32768
280
     0
281
     1
  0
CLASS
  1
XRECORD
  2
AcDbXrecord
  3
AutoCAD 2000
 90
    32768
280
     0
281
     0
  0
CLASS
  1
LONG_TRANSACTION
  2
AcDbLongTransaction
  3
AutoCAD 2000
 90
    32768
280
     0
281
     0
  0
CLASS
  1
LWPOLYLINE
  2
AcDbPolyline
  3
AutoCAD 2000
 90
    32768
280
     0
281
     1
  0
CLASS
  1
HATCH
  2
AcDbHatch
  3
AutoCAD 2000
 90
    32768
280
     0
281
     1
  0
CLASS
  1
XRECORD
  2
AcDbXrecord
  3
AutoCAD 2000
 90
    32768
280
     0
281
     0
  0
CLASS
  1
LONG_TRANSACTION
  2
AcDbLongTransaction
  3
AutoCAD 2000
 90
    32768
280
     0
281
     0
  0
CLASS
  1
LWPOLYLINE
  2
AcDbPolyline
  3
AutoCAD 2000
 90
    32768
280
     0
281
     1
  0
CLASS
  1
HATCH
  2
AcDbHatch
  3
AutoCAD 2000
 90
    32768
280
     0
281
     1
  0
CLASS
  1
XRECORD
  2
AcDbXrecord
  3
AutoCAD 2000
 90
    32768
280
     0
281
     0
  0
CLASS
  1
LONG_TRANSACTION
  2
AcDbLongTransaction
  3
AutoCAD 2000
 90
    32768
280
     0
281
     0
  0
CLASS
  1
LWPOLYLINE
  2
AcDbPolyline
  3
AutoCAD 2000
 90
    32768
280
     0
281
     1
  0
CLASS
  1
HATCH
  2
AcDbHatch
  3
AutoCAD 2000
 90
    32768
280
     0
281
     1
  0
CLASS
  1
XRECORD
  2
AcDbXrecord
  3
AutoCAD 2000
 90
    32768
280
     0
281
     0
  0
CLASS
  1
LONG_TRANSACTION
  2
AcDbLongTransaction
  3
AutoCAD 2000
 90
    32768
280
     0
281
     0
  0
CLASS
  1
LWPOLYLINE
  2
AcDbPolyline
  3
AutoCAD 2000
 90
    32768
280
     0
281
     1
  0
CLASS
  1
HATCH
  2
AcDbHatch
  3
AutoCAD 2000
 90
    32768
280
     0
281
     1
  0
CLASS
  1
XRECORD
  2
AcDbXrecord
  3
AutoCAD 2000
 90
    32768
280
     0
281
     0
  0
CLASS
  1
LONG_TRANSACTION
  2
AcDbLongTransaction
  3
AutoCAD 2000
 90
    32768
280
     0
281
     0
  0
CLASS
  1
LWPOLYLINE
  2
AcDbPolyline
  3
AutoCAD 2000
 90
    32768
280
     0
281
     1
  0
CLASS
  1
HATCH
  2
AcDbHatch
  3
AutoCAD 2000
 90
    32768
280
     0
281
     1
  0
CLASS
  1
XRECORD
  2
AcDbXrecord
  3
AutoCAD 2000
 90
    32768
280
     0
281
     0
  0
CLASS
  1
LONG_TRANSACTION
  2
AcDbLongTransaction
  3
AutoCAD 2000
 90
    32768
280
     0
281
     0
  0
CLASS
  1
LWPOLYLINE
  2
AcDbPolyline
  3
AutoCAD 2000
 90
    32768
280
     0
281
     1
  0
CLASS
  1
HATCH
  2
AcDbHatch
  3
AutoCAD 2000
 90
    32768
280
     0
281
     1
  0
CLASS
  1
XRECORD
  2
AcDbXrecord
  3
AutoCAD 2000
 90
    32768
280
     0
281
     0
  0
CLASS
  1
LONG_TRANSACTION
  2
AcDbLongTransaction
  3
AutoCAD 2000
 90
    32768
280
     0
281
     0
  0
CLASS
  1
LWPOLYLINE
  2
AcDbPolyline
  3
AutoCAD 2000
 90
    32768
280
     0
281
     1
  0
CLASS
  1
HATCH
  2
AcDbHatch
  3
AutoCAD 2000
 90
    32768
280
     0
281
     1
  0
CLASS
  1
XRECORD
  2
AcDbXrecord
  3
AutoCAD 2000
 90
    32768
280
     0
281
     0
  0
CLASS
  1
LONG_TRANSACTION
  2
AcDbLongTransaction
  3
AutoCAD 2000
 90
    32768
280
     0
281
     0
  0
CLASS
  1
LWPOLYLINE
  2
AcDbPolyline
  3
AutoCAD 2000
 90
    32768
280
     0
281
     1
  0
CLASS
  1
HATCH
  2
AcDbHatch
  3
AutoCAD 2000
 90
    32768
280
     0
281
     1
  0
CLASS
  1
XRECORD
  2
AcDbXrecord
  3
AutoCAD 2000
 90
    32768
280
     0
281
     0
  0
CLASS
  1
LONG_TRANSACTION
  2
AcDbLongTransaction
  3
AutoCAD 2000
 90
    32768
280
     0
281
     0
  0
CLASS
  1
LWPOLYLINE
  2
AcDbPolyline
  3
AutoCAD 2000
 90
    32768
280
     0
281
     1
  0
CLASS
  1
HATCH
  2
AcDbHatch
  3
AutoCAD 2000
 90
    32768
280
     0
281
     1
  0
CLASS
  1
XRECORD
  2
AcDbXrecord
  3
AutoCAD 2000
 90
    32768
280
     0
281
     0
  0
CLASS
  1
LONG_TRANSACTION
  2
AcDbLongTransaction
  3
AutoCAD 2000
 90
    32768
280
     0
281
     0
  0
CLASS
  1
LWPOLYLINE
  2
AcDbPolyline
  3
AutoCAD 2000
 90
    32768
280
     0
281
     1
  0
CLASS
  1
HATCH
  2
AcDbHatch
  3
AutoCAD 2000
 90
    32768
280
     0
281
     1
  0
CLASS
  1
XRECORD
  2
AcDbXrecord
  3
AutoCAD 2000
 90
    32768
280
     0
281
     0
  0
CLASS
  1
LONG_TRANSACTION
  2
AcDbLongTransaction
  3
AutoCAD 2000
 90
    32768
280
     0
281
     0
  0
CLASS
  1
LWPOLYLINE
  2
AcDbPolyline
  3
AutoCAD 2000
 90
    32768
280
     0
281
     1
  0
CLASS
  1
HATCH
  2
AcDbHatch
  3
AutoCAD 2000
 90
    32768
280
     0
281
     1
  0
CLASS
  1
XRECORD
  2
AcDbXrecord
  3
AutoCAD 2000
 90
    32768
280
     0
281
     0
  0
CLASS
  1
LONG_TRANSACTION
  2
AcDbLongTransaction
  3
AutoCAD 2000
 90
    32768
280
     0
281
     0
  0
CLASS
  1
LWPOLYLINE
  2
AcDbPolyline
  3
AutoCAD 2000
 90
    32768
280
     0
281
     1
  0
CLASS
  1
HATCH
  2
AcDbHatch
  3
AutoCAD 2000
 90
    32768
280
     0
281
     1
  0
CLASS
  1
XRECORD
  2
AcDbXrecord
  3
AutoCAD 2000
 90
    32768
280
     0
281
     0
  0
CLASS
  1
LONG_TRANSACTION
  2
AcDbLongTransaction
  3
AutoCAD 2000
 90
    32768
280
     0
281
     0
  0
CLASS
  1
LWPOLYLINE
  2
AcDbPolyline
  3
AutoCAD 2000
 90
    32768
280
     0
281
     1
  0
CLASS
  1
HATCH
  2
AcDbHatch
  3
AutoCAD 2000
 90
    32768
280
     0
281
     1
  0
CLASS
  1
XRECORD
  2
AcDbXrecord
  3
AutoCAD 2000
 90
    32768
280
     0
281
     0
  0
CLASS
  1
LONG_TRANSACTION
  2
AcDbLongTransaction
  3
AutoCAD 2000
 90
    32768
280
     0
281
     0
  0
CLASS
  1
LWPOLYLINE
  2
AcDbPolyline
  3
AutoCAD 2000
 90
    32768
280
     0
281
     1
  0
CLASS
  1
HATCH
  2
AcDbHatch
  3
AutoCAD 2000
 90
    32768
280
     0
281
     1
  0
CLASS
  1
XRECORD
  2
AcDbXrecord
  3
AutoCAD 2000
 90
    32768
280
     0
281
     0
  0
CLASS
  1
LONG_TRANSACTION
  2
AcDbLongTransaction
  3
AutoCAD 2000
 90
    32768
280
     0
281
     0
  0
CLASS
  1
LWPOLYLINE
  2
AcDbPolyline
  3
AutoCAD 2000
 90
    32768
280
     0
281
     1
  0
CLASS
  1
HATCH
  2
AcDbHatch
  3
AutoCAD 2000
 90
    32768
280
     0
281
     1
  0
CLASS
  1
XRECORD
  2
AcDbXrecord
  3
AutoCAD 2000
 90
    32768
280
     0
281
     0
  0
CLASS
  1
LONG_TRANSACTION
  2
AcDbLongTransaction
  3
AutoCAD 2000
 90
    32768
280
     0
281
     0
  0
CLASS
  1
LWPOLYLINE
  2
AcDbPolyline
  3
AutoCAD 2000
 90
    32768
280
     0
281
     1
  0
CLASS
  1
HATCH
  2
AcDbHatch
  3
AutoCAD 2000
 90
    32768
280
     0
281
     1
  0
CLASS
  1
XRECORD
  2
AcDbXrecord
  3
AutoCAD 2000
 90
    32768
280
     0
281
     0
  0
ENDSEC
  0
SECTION
  2
TABLES
  0
TABLE
  2
VPORT
  5
8
330
0
100
AcDbSymbolTable
 70
     2
  0
VPORT
  5
A213
330
8
100
AcDbSymbolTableRecord
100
AcDbViewportTableRecord
  2
*Active
 70
     0
 10
0.0
 20
0.0
 11
1.0
 21
1.0
 12
67.75821346770728
 22
-55.04723642362448
 13
0.0
 23
0.0
 14
0.5
 24
0.5
 15
0.5
 25
0.5
 16
0.0
 26
0.0
 36
1.0
 17
0.0
 27
0.0
 37
0.0
 40
24.25751925402874
 41
2.254681647940075
 42
50.0
 43
0.0
 44
0.0
 50
0.0
 51
0.0
 71
     0
 72
   100
 73
     1
 74
     0
 75
     0
 76
     0
 77
     0
 78
     0
281
     0
 65
     1
110
39.17704525271716
120
-14.82732371801974
130
0.0
111
1.0
121
0.0
131
0.0
112
0.0
122
1.0
132
0.0
 79
     0
146
0.0
  0
ENDTAB
  0
TABLE
  2
LTYPE
  5
5
330
0
100
AcDbSymbolTable
 70
     5
  0
LTYPE
  5
12
330
5
100
AcDbSymbolTableRecord
100
AcDbLinetypeTableRecord
  2
BYBLOCK
 70
     0
  3

 72
    65
 73
     0
 40
0.0
  0
LTYPE
  5
13
330
5
100
AcDbSymbolTableRecord
100
AcDbLinetypeTableRecord
  2
BYLAYER
 70
     0
  3

 72
    65
 73
     0
 40
0.0
  0
LTYPE
  5
14
330
5
100
AcDbSymbolTableRecord
100
AcDbLinetypeTableRecord
  2
CONTINUOUS
 70
     0
  3
Solid line
 72
    65
 73
     0
 40
0.0
  0
LTYPE
  5
11E
330
5
100
AcDbSymbolTableRecord
100
AcDbLinetypeTableRecord
  2
PHANTOM
 70
     0
  3
Phantom ______  __  __  ______  __  __  ______
 72
    65
 73
     6
 40
2.5
 49
1.25
 74
     0
 49
-0.25
 74
     0
 49
0.25
 74
     0
 49
-0.25
 74
     0
 49
0.25
 74
     0
 49
-0.25
 74
     0
  0
ENDTAB
  0
TABLE
  2
LAYER
  5
2
330
0
100
AcDbSymbolTable
 70
    16
  0
LAYER
  5
E
330
2
100
AcDbSymbolTableRecord
100
AcDbLayerTableRecord
  2
0
 70
     0
 62
     7
  6
CONTINUOUS
370
    -3
390
12AD
  0
LAYER
  5
5B
330
2
100
AcDbSymbolTableRecord
100
AcDbLayerTableRecord
  2
DEFPOINTS
 70
     0
 62
     7
  6
CONTINUOUS
290
     0
370
    -3
390
12AD
  0
LAYER
  5
46F
330
2
100
AcDbSymbolTableRecord
100
AcDbLayerTableRecord
  2
TEXT
 70
     0
 62
     2
  6
CONTINUOUS
370
    -3
390
12AD
  0
LAYER
  5
577
330
2
100
AcDbSymbolTableRecord
100
AcDbLayerTableRecord
  2
DIM
 70
     0
 62
     2
  6
PHANTOM
370
     9
390
12AD
  0
LAYER
  5
1900
330
2
100
AcDbSymbolTableRecord
100
AcDbLayerTableRecord
  2
silk
 70
     0
 62
     3
  6
CONTINUOUS
370
    -3
390
12AD
  0
LAYER
  5
2BE0
330
2
100
AcDbSymbolTableRecord
100
AcDbLayerTableRecord
  2
BEZEL
 70
     0
 62
     7
  6
CONTINUOUS
370
    -3
390
12AD
  0
LAYER
  5
3050
330
2
100
AcDbSymbolTableRecord
100
AcDbLayerTableRecord
  2
Buttons
 70
     0
 62
     7
  6
CONTINUOUS
370
    -3
390
12AD
  0
LAYER
  5
90C7
330
2
100
AcDbSymbolTableRecord
100
AcDbLayerTableRecord
  2
Chassis
 70
     0
 62
    31
  6
CONTINUOUS
370
    -3
390
12AD
  0
ENDTAB
  0
TABLE
  2
STYLE
  5
3
330
0
100
AcDbSymbolTable
 70
     4
  0
STYLE
  5
F
330
3
100
AcDbSymbolTableRecord
100
AcDbTextStyleTableRecord
  2
STANDARD
 70
     0
 40
0.0
 41
1.0
 50
0.0
 71
     0
 42
0.2
  3
txt
  4

  0
STYLE
  5
369
330
3
100
AcDbSymbolTableRecord
100
AcDbTextStyleTableRecord
  2
ROMANC
 70
     0
 40
0.1
 41
1.0
 50
0.0
 71
     0
 42
0.1
  3
romanc
  4

  0
STYLE
  5
470
330
3
100
AcDbSymbolTableRecord
100
AcDbTextStyleTableRecord
  2
ROMANS
 70
     0
 40
0.156
 41
1.0
 50
0.0
 71
     0
 42
0.156
  3
ROMANS
  4

  0
STYLE
  5
471
330
3
100
AcDbSymbolTableRecord
100
AcDbTextStyleTableRecord
  2
ROMAND
 70
     0
 40
0.18
 41
1.0
 50
0.0
 71
     0
 42
0.18
  3
romand
  4

  0
ENDTAB
  0
TABLE
  2
VIEW
  5
6
330
0
100
AcDbSymbolTable
 70
     0
  0
ENDTAB
  0
TABLE
  2
UCS
  5
7
330
0
100
AcDbSymbolTable
 70
     0
  0
ENDTAB
  0
TABLE
  2
APPID
  5
9
330
0
100
AcDbSymbolTable
 70
     1
  0
APPID
  5
10
330
9
100
AcDbSymbolTableRecord
100
AcDbRegAppTableRecord
  2
ACAD
 70
     0
  0
ENDTAB
  0
TABLE
  2
DIMSTYLE
  5
A
330
0
100
AcDbSymbolTable
 70
     1
100
AcDbDimStyleTable
 71
     0
  0
DIMSTYLE
105
1D
102
{ACAD_REACTORS
330
9C25
330
9C33
330
9C41
330
9C4F
330
9C5D
330
9728
330
964C
330
92B8
102
}
330
A
100
AcDbSymbolTableRecord
100
AcDbDimStyleTableRecord
  2
STANDARD
 70
     0
271
     3
272
     3
340
F
  0
ENDTAB
  0
TABLE
  2
BLOCK_RECORD
  5
1
330
0
100
AcDbSymbolTable
 70
     9
  0
BLOCK_RECORD
  5
18
102
{ACAD_XDICTIONARY
360
130A
102
}
330
1
100
AcDbSymbolTableRecord
100
AcDbBlockTableRecord
  2
*MODEL_SPACE
340
12B0
  0
BLOCK_RECORD
  5
15
102
{ACAD_XDICTIONARY
360
1308
102
}
330
1
100
AcDbSymbolTableRecord
100
AcDbBlockTableRecord
  2
*PAPER_SPACE
340
12B1
  0
BLOCK_RECORD
  5
9C26
330
1
100
AcDbSymbolTableRecord
100
AcDbBlockTableRecord
  2
*D4
340
0
  0
BLOCK_RECORD
  5
9C34
330
1
100
AcDbSymbolTableRecord
100
AcDbBlockTableRecord
  2
*D5
340
0
  0
BLOCK_RECORD
  5
9C42
330
1
100
AcDbSymbolTableRecord
100
AcDbBlockTableRecord
  2
*D6
340
0
  0
BLOCK_RECORD
  5
9C50
330
1
100
AcDbSymbolTableRecord
100
AcDbBlockTableRecord
  2
*D7
340
0
  0
BLOCK_RECORD
  5
9C5E
330
1
100
AcDbSymbolTableRecord
100
AcDbBlockTableRecord
  2
*D8
340
0
  0
ENDTAB
  0
ENDSEC
  0
SECTION
  2
BLOCKS
  0
BLOCK
  5
19
330
18
100
AcDbEntity
  8
0
100
AcDbBlockBegin
  2
*MODEL_SPACE
 70
     0
 10
0.0
 20
0.0
 30
0.0
  3
*MODEL_SPACE
  1

  0
ENDBLK
  5
1A
330
18
100
AcDbEntity
  8
0
100
AcDbBlockEnd
  0
BLOCK
  5
16
330
15
100
AcDbEntity
 67
     1
  8
0
100
AcDbBlockBegin
  2
*PAPER_SPACE
 70
     0
 10
0.0
 20
0.0
 30
0.0
  3
*PAPER_SPACE
  1

  0
ENDBLK
  5
17
330
15
100
AcDbEntity
 67
     1
  8
0
100
AcDbBlockEnd
  0
BLOCK
  5
9C31
330
9C26
100
AcDbEntity
  8
0
100
AcDbBlockBegin
  2
*D4
 70
     1
 10
0.0
 20
0.0
 30
0.0
  3
*D4
  1

  0
LINE
  5
9C27
330
9C26
100
AcDbEntity
  8
DIM
 62
     0
370
    -2
100
AcDbLine
 10
52.53234135910973
 20
-64.32128136102064
 30
0.0
 11
52.53234135910973
 21
-65.50621299741745
 31
0.0
  0
LINE
  5
9C28
330
9C26
100
AcDbEntity
  8
DIM
 62
     0
370
    -2
100
AcDbLine
 10
68.28234135910975
 20
-64.32128136102062
 30
0.0
 11
68.28234135910975
 21
-65.50621299741745
 31
0.0
  0
LINE
  5
9C29
330
9C26
100
AcDbEntity
  8
DIM
 62
     0
370
    -2
100
AcDbLine
 10
52.71234135910973
 20
-65.32621299741744
 30
0.0
 11
59.91234135910975
 21
-65.32621299741744
 31
0.0
  0
LINE
  5
9C2A
330
9C26
100
AcDbEntity
  8
DIM
 62
     0
370
    -2
100
AcDbLine
 10
68.10234135910974
 20
-65.32621299741744
 30
0.0
 11
60.90234135910974
 21
-65.32621299741744
 31
0.0
  0
SOLID
  5
9C2B
330
9C26
100
AcDbEntity
  8
DIM
 62
     0
100
AcDbTrace
 10
52.71234135910973
 20
-65.29621299741744
 30
0.0
 11
52.71234135910973
 21
-65.35621299741745
 31
0.0
 12
52.53234135910973
 22
-65.32621299741744
 32
0.0
 13
52.53234135910973
 23
-65.32621299741744
 33
0.0
  0
SOLID
  5
9C2C
330
9C26
100
AcDbEntity
  8
DIM
 62
     0
100
AcDbTrace
 10
68.10234135910974
 20
-65.29621299741744
 30
0.0
 11
68.10234135910974
 21
-65.35621299741745
 31
0.0
 12
68.28234135910975
 22
-65.32621299741744
 32
0.0
 13
68.28234135910975
 23
-65.32621299741744
 33
0.0
  0
MTEXT
  5
9C2D
330
9C26
100
AcDbEntity
  8
DIM
 62
     0
100
AcDbMText
 10
60.40734135910974
 20
-65.32621299741744
 30
0.0
 40
0.18
 41
0.0
 71
     5
 72
     1
  1
\A1;15.750
 73
     1
 44
1.0
1001
ACAD
1000
MTEXTBEGIN
1070
    73
1070
     1
1070
    44
1040
1.0
1070
    74
1070
     0
1000
MTEXTEND
1000
MTEXTBEGIN
1070
    73
1070
     1
1070
    44
1040
1.0
1070
    74
1070
     0
1000
MTEXTEND
  0
POINT
  5
9C2E
330
9C26
100
AcDbEntity
  8
DEFPOINTS
 62
     0
100
AcDbPoint
 10
52.53234135910973
 20
-64.25878136102063
 30
0.0
  0
POINT
  5
9C2F
330
9C26
100
AcDbEntity
  8
DEFPOINTS
 62
     0
100
AcDbPoint
 10
68.28234135910975
 20
-64.25878136102062
 30
0.0
  0
POINT
  5
9C30
330
9C26
100
AcDbEntity
  8
DEFPOINTS
 62
     0
100
AcDbPoint
 10
68.28234135910975
 20
-65.32621299741744
 30
0.0
  0
ENDBLK
  5
9C32
330
9C26
100
AcDbEntity
  8
0
100
AcDbBlockEnd
  0
BLOCK
  5
9C3F
330
9C34
100
AcDbEntity
  8
0
100
AcDbBlockBegin
  2
*D5
 70
     1
 10
0.0
 20
0.0
 30
0.0
  3
*D5
  1

  0
LINE
  5
9C35
330
9C34
100
AcDbEntity
  8
DIM
 62
     0
370
    -2
100
AcDbLine
 10
68.34484135910973
 20
-59.13983768643149
 30
0.0
 11
70.14681563394566
 21
-59.13983768643149
 31
0.0
  0
LINE
  5
9C36
330
9C34
100
AcDbEntity
  8
DIM
 62
     0
370
    -2
100
AcDbLine
 10
68.34484135910969
 20
-45.16983768643147
 30
0.0
 11
70.14681563394566
 21
-45.16983768643147
 31
0.0
  0
LINE
  5
9C37
330
9C34
100
AcDbEntity
  8
DIM
 62
     0
370
    -2
100
AcDbLine
 10
69.96681563394566
 20
-58.95983768643149
 30
0.0
 11
69.96681563394566
 21
-52.33483768643148
 31
0.0
  0
LINE
  5
9C38
330
9C34
100
AcDbEntity
  8
DIM
 62
     0
370
    -2
100
AcDbLine
 10
69.96681563394566
 20
-45.34983768643147
 30
0.0
 11
69.96681563394566
 21
-51.97483768643149
 31
0.0
  0
SOLID
  5
9C39
330
9C34
100
AcDbEntity
  8
DIM
 62
     0
100
AcDbTrace
 10
69.93681563394566
 20
-58.95983768643149
 30
0.0
 11
69.99681563394566
 21
-58.95983768643149
 31
0.0
 12
69.96681563394566
 22
-59.13983768643149
 32
0.0
 13
69.96681563394566
 23
-59.13983768643149
 33
0.0
  0
SOLID
  5
9C3A
330
9C34
100
AcDbEntity
  8
DIM
 62
     0
100
AcDbTrace
 10
69.93681563394566
 20
-45.34983768643147
 30
0.0
 11
69.99681563394566
 21
-45.34983768643147
 31
0.0
 12
69.96681563394566
 22
-45.16983768643147
 32
0.0
 13
69.96681563394566
 23
-45.16983768643147
 33
0.0
  0
MTEXT
  5
9C3B
330
9C34
100
AcDbEntity
  8
DIM
 62
     0
100
AcDbMText
 10
69.96681563394567
 20
-52.15483768643148
 30
0.0
 40
0.18
 41
0.0
 71
     5
 72
     1
  1
\A1;13.970
 73
     1
 44
1.0
1001
ACAD
1000
MTEXTBEGIN
1070
    73
1070
     1
1070
    44
1040
1.0
1070
    74
1070
     0
1000
MTEXTEND
1000
MTEXTBEGIN
1070
    73
1070
     1
1070
    44
1040
1.0
1070
    74
1070
     0
1000
MTEXTEND
  0
POINT
  5
9C3C
330
9C34
100
AcDbEntity
  8
DEFPOINTS
 62
     0
100
AcDbPoint
 10
68.28234135910974
 20
-59.13983768643149
 30
0.0
  0
POINT
  5
9C3D
330
9C34
100
AcDbEntity
  8
DEFPOINTS
 62
     0
100
AcDbPoint
 10
68.28234135910969
 20
-45.16983768643147
 30
0.0
  0
POINT
  5
9C3E
330
9C34
100
AcDbEntity
  8
DEFPOINTS
 62
     0
100
AcDbPoint
 10
69.96681563394566
 20
-45.16983768643147
 30
0.0
  0
ENDBLK
  5
9C40
330
9C34
100
AcDbEntity
  8
0
100
AcDbBlockEnd
  0
BLOCK
  5
9C4D
330
9C42
100
AcDbEntity
  8
0
100
AcDbBlockBegin
  2
*D6
 70
     1
 10
0.0
 20
0.0
 30
0.0
  3
*D6
  1

  0
LINE
  5
9C43
330
9C42
100
AcDbEntity
  8
DIM
 62
     0
370
    -2
100
AcDbLine
 10
76.60518483631384
 20
-59.13983768643149
 30
0.0
 11
79.31380435991553
 21
-59.13983768643149
 31
0.0
  0
LINE
  5
9C44
330
9C42
100
AcDbEntity
  8
DIM
 62
     0
370
    -2
100
AcDbLine
 10
77.73018483631384
 20
-55.70283768643148
 30
0.0
 11
79.31380435991553
 21
-55.70283768643148
 31
0.0
  0
LINE
  5
9C45
330
9C42
100
AcDbEntity
  8
DIM
 62
     0
370
    -2
100
AcDbLine
 10
79.13380435991553
 20
-58.95983768643148
 30
0.0
 11
79.13380435991553
 21
-57.60133768643148
 31
0.0
  0
LINE
  5
9C46
330
9C42
100
AcDbEntity
  8
DIM
 62
     0
370
    -2
100
AcDbLine
 10
79.13380435991553
 20
-55.88283768643147
 30
0.0
 11
79.13380435991553
 21
-57.24133768643149
 31
0.0
  0
SOLID
  5
9C47
330
9C42
100
AcDbEntity
  8
DIM
 62
     0
100
AcDbTrace
 10
79.10380435991553
 20
-58.95983768643148
 30
0.0
 11
79.16380435991553
 21
-58.95983768643148
 31
0.0
 12
79.13380435991553
 22
-59.13983768643149
 32
0.0
 13
79.13380435991553
 23
-59.13983768643149
 33
0.0
  0
SOLID
  5
9C48
330
9C42
100
AcDbEntity
  8
DIM
 62
     0
100
AcDbTrace
 10
79.10380435991553
 20
-55.88283768643147
 30
0.0
 11
79.16380435991553
 21
-55.88283768643147
 31
0.0
 12
79.13380435991553
 22
-55.70283768643148
 32
0.0
 13
79.13380435991553
 23
-55.70283768643148
 33
0.0
  0
MTEXT
  5
9C49
330
9C42
100
AcDbEntity
  8
DIM
 62
     0
100
AcDbMText
 10
79.13380435991554
 20
-57.42133768643148
 30
0.0
 40
0.18
 41
0.0
 71
     5
 72
     1
  1
\A1;3.437
 73
     1
 44
1.0
1001
ACAD
1000
MTEXTBEGIN
1070
    73
1070
     1
1070
    44
1040
1.0
1070
    74
1070
     0
1000
MTEXTEND
1000
MTEXTBEGIN
1070
    73
1070
     1
1070
    44
1040
1.0
1070
    74
1070
     0
1000
MTEXTEND
  0
POINT
  5
9C4A
330
9C42
100
AcDbEntity
  8
DEFPOINTS
 62
     0
100
AcDbPoint
 10
76.54268483631383
 20
-59.13983768643149
 30
0.0
  0
POINT
  5
9C4B
330
9C42
100
AcDbEntity
  8
DEFPOINTS
 62
     0
100
AcDbPoint
 10
77.66768483631384
 20
-55.70283768643148
 30
0.0
  0
POINT
  5
9C4C
330
9C42
100
AcDbEntity
  8
DEFPOINTS
 62
     0
100
AcDbPoint
 10
79.13380435991553
 20
-55.70283768643148
 30
0.0
  0
ENDBLK
  5
9C4E
330
9C42
100
AcDbEntity
  8
0
100
AcDbBlockEnd
  0
BLOCK
  5
9C5B
330
9C50
100
AcDbEntity
  8
0
100
AcDbBlockBegin
  2
*D7
 70
     1
 10
0.0
 20
0.0
 30
0.0
  3
*D7
  1

  0
LINE
  5
9C51
330
9C50
100
AcDbEntity
  8
DIM
 62
     0
370
    -2
100
AcDbLine
 10
75.16768483631384
 20
-59.2023376864315
 30
0.0
 11
75.16768483631384
 21
-60.12669666004768
 31
0.0
  0
LINE
  5
9C52
330
9C50
100
AcDbEntity
  8
DIM
 62
     0
370
    -2
100
AcDbLine
 10
76.54268483631383
 20
-59.20233768643148
 30
0.0
 11
76.54268483631383
 21
-60.12669666004768
 31
0.0
  0
LINE
  5
9C53
330
9C50
100
AcDbEntity
  8
DIM
 62
     0
370
    -2
100
AcDbLine
 10
74.98768483631383
 20
-59.94669666004768
 30
0.0
 11
74.80768483631384
 21
-59.94669666004768
 31
0.0
  0
LINE
  5
9C54
330
9C50
100
AcDbEntity
  8
DIM
 62
     0
370
    -2
100
AcDbLine
 10
76.72268483631384
 20
-59.94669666004768
 30
0.0
 11
76.90268483631384
 21
-59.94669666004768
 31
0.0
  0
SOLID
  5
9C55
330
9C50
100
AcDbEntity
  8
DIM
 62
     0
100
AcDbTrace
 10
74.98768483631383
 20
-59.91669666004768
 30
0.0
 11
74.98768483631383
 21
-59.97669666004768
 31
0.0
 12
75.16768483631384
 22
-59.94669666004768
 32
0.0
 13
75.16768483631384
 23
-59.94669666004768
 33
0.0
  0
SOLID
  5
9C56
330
9C50
100
AcDbEntity
  8
DIM
 62
     0
100
AcDbTrace
 10
76.72268483631384
 20
-59.91669666004768
 30
0.0
 11
76.72268483631384
 21
-59.97669666004768
 31
0.0
 12
76.54268483631383
 22
-59.94669666004768
 32
0.0
 13
76.54268483631383
 23
-59.94669666004768
 33
0.0
  0
MTEXT
  5
9C57
330
9C50
100
AcDbEntity
  8
DIM
 62
     0
100
AcDbMText
 10
75.85518483631384
 20
-59.94669666004768
 30
0.0
 40
0.18
 41
0.0
 71
     5
 72
     1
  1
\A1;1.375
 73
     1
 44
1.0
1001
ACAD
1000
MTEXTBEGIN
1070
    73
1070
     1
1070
    44
1040
1.0
1070
    74
1070
     0
1000
MTEXTEND
1000
MTEXTBEGIN
1070
    73
1070
     1
1070
    44
1040
1.0
1070
    74
1070
     0
1000
MTEXTEND
  0
POINT
  5
9C58
330
9C50
100
AcDbEntity
  8
DEFPOINTS
 62
     0
100
AcDbPoint
 10
75.16768483631384
 20
-59.1398376864315
 30
0.0
  0
POINT
  5
9C59
330
9C50
100
AcDbEntity
  8
DEFPOINTS
 62
     0
100
AcDbPoint
 10
76.54268483631383
 20
-59.13983768643149
 30
0.0
  0
POINT
  5
9C5A
330
9C50
100
AcDbEntity
  8
DEFPOINTS
 62
     0
100
AcDbPoint
 10
76.54268483631383
 20
-59.94669666004768
 30
0.0
  0
ENDBLK
  5
9C5C
330
9C50
100
AcDbEntity
  8
0
100
AcDbBlockEnd
  0
BLOCK
  5
9C69
330
9C5E
100
AcDbEntity
  8
0
100
AcDbBlockBegin
  2
*D8
 70
     1
 10
0.0
 20
0.0
 30
0.0
  3
*D8
  1

  0
LINE
  5
9C5F
330
9C5E
100
AcDbEntity
  8
DIM
 62
     0
370
    -2
100
AcDbLine
 10
68.34484135910975
 20
-64.25878136102062
 30
0.0
 11
69.48395483821444
 21
-64.25878136102062
 31
0.0
  0
LINE
  5
9C60
330
9C5E
100
AcDbEntity
  8
DIM
 62
     0
370
    -2
100
AcDbLine
 10
68.34484135910975
 20
-61.75878136102061
 30
0.0
 11
69.48395483821444
 21
-61.75878136102061
 31
0.0
  0
LINE
  5
9C61
330
9C5E
100
AcDbEntity
  8
DIM
 62
     0
370
    -2
100
AcDbLine
 10
69.30395483821444
 20
-64.07878136102062
 30
0.0
 11
69.30395483821444
 21
-63.18878136102061
 31
0.0
  0
LINE
  5
9C62
330
9C5E
100
AcDbEntity
  8
DIM
 62
     0
370
    -2
100
AcDbLine
 10
69.30395483821444
 20
-61.9387813610206
 30
0.0
 11
69.30395483821444
 21
-62.82878136102062
 31
0.0
  0
SOLID
  5
9C63
330
9C5E
100
AcDbEntity
  8
DIM
 62
     0
100
AcDbTrace
 10
69.27395483821443
 20
-64.07878136102062
 30
0.0
 11
69.33395483821444
 21
-64.07878136102062
 31
0.0
 12
69.30395483821444
 22
-64.25878136102062
 32
0.0
 13
69.30395483821444
 23
-64.25878136102062
 33
0.0
  0
SOLID
  5
9C64
330
9C5E
100
AcDbEntity
  8
DIM
 62
     0
100
AcDbTrace
 10
69.27395483821443
 20
-61.9387813610206
 30
0.0
 11
69.33395483821444
 21
-61.9387813610206
 31
0.0
 12
69.30395483821444
 22
-61.75878136102061
 32
0.0
 13
69.30395483821444
 23
-61.75878136102061
 33
0.0
  0
MTEXT
  5
9C65
330
9C5E
100
AcDbEntity
  8
DIM
 62
     0
100
AcDbMText
 10
69.30395483821445
 20
-63.00878136102061
 30
0.0
 40
0.18
 41
0.0
 71
     5
 72
     1
  1
\A1;2.500
 73
     1
 44
1.0
1001
ACAD
1000
MTEXTBEGIN
1070
    73
1070
     1
1070
    44
1040
1.0
1070
    74
1070
     0
1000
MTEXTEND
1000
MTEXTBEGIN
1070
    73
1070
     1
1070
    44
1040
1.0
1070
    74
1070
     0
1000
MTEXTEND
  0
POINT
  5
9C66
330
9C5E
100
AcDbEntity
  8
DEFPOINTS
 62
     0
100
AcDbPoint
 10
68.28234135910975
 20
-64.25878136102062
 30
0.0
  0
POINT
  5
9C67
330
9C5E
100
AcDbEntity
  8
DEFPOINTS
 62
     0
100
AcDbPoint
 10
68.28234135910975
 20
-61.75878136102061
 30
0.0
  0
POINT
  5
9C68
330
9C5E
100
AcDbEntity
  8
DEFPOINTS
 62
     0
100
AcDbPoint
 10
69.30395483821444
 20
-61.75878136102061
 30
0.0
  0
ENDBLK
  5
9C6A
330
9C5E
100
AcDbEntity
  8
0
100
AcDbBlockEnd
  0
ENDSEC
  0
SECTION
  2
ENTITIES
  0
TEXT
  5
6BA
330
18
100
AcDbEntity
  8
TEXT
100
AcDbText
 10
29.26696631287537
 20
-4.357411679832868
 30
0.0
 40
0.1974375
  1

  7
ROMANS
100
AcDbText
  0
TEXT
  5
6DB
330
18
100
AcDbEntity
  8
TEXT
100
AcDbText
 10
37.71182093152992
 20
-2.502521891026205
 30
0.0
 40
0.4
  1

 41
2.05854207871604
  7
ROMANS
 72
     5
 11
41.67206378772649
 21
-2.502521891026205
 31
0.0
100
AcDbText
  0
TEXT
  5
F92
330
18
100
AcDbEntity
  8
TEXT
100
AcDbText
 10
61.33191820953279
 20
-22.32814429819993
 30
0.0
 40
0.2486190055747936
  1

  7
ROMANS
100
AcDbText
  0
TEXT
  5
1BCB
330
18
100
AcDbEntity
  8
TEXT
100
AcDbText
 10
43.77609604559618
 20
-5.080679851762017
 30
0.0
 40
0.3683244527033978
  1

  7
ROMANS
100
AcDbText
  0
TEXT
  5
1C0E
330
18
100
AcDbEntity
  8
TEXT
100
AcDbText
 10
55.68508128386476
 20
-22.55867429560016
 30
0.0
 40
0.1332703125
  1

  7
ROMANS
100
AcDbText
  0
MTEXT
  5
2985
330
18
100
AcDbEntity
  8
0
100
AcDbMText
 10
14.67296561329859
 20
22.50832474312832
 30
0.0
 40
0.24
 41
0.0
 71
     4
 72
     1
  1
\A1;
 73
     1
 44
1.0
1001
ACAD
1000
MTEXTBEGIN
1070
    73
1070
     1
1070
    44
1040
1.0
1070
    74
1070
     0
1000
MTEXTEND
1000
MTEXTBEGIN
1070
    73
1070
     1
1070
    44
1040
1.0
1070
    74
1070
     0
1000
MTEXTEND
1000
MTEXTBEGIN
1070
    73
1070
     1
1070
    44
1040
1.0
1070
    74
1070
     0
1000
MTEXTEND
1000
MTEXTBEGIN
1070
    73
1070
     1
1070
    44
1040
1.0
1070
    74
1070
     0
1000
MTEXTEND
1000
MTEXTBEGIN
1070
    73
1070
     1
1070
    44
1040
1.0
1070
    74
1070
     0
1000
MTEXTEND
1000
MTEXTBEGIN
1070
    73
1070
     1
1070
    44
1040
1.0
1070
    74
1070
     0
1000
MTEXTEND
1000
MTEXTBEGIN
1070
    73
1070
     1
1070
    44
1040
1.0
1070
    74
1070
     0
1000
MTEXTEND
1000
MTEXTBEGIN
1070
    73
1070
     1
1070
    44
1040
1.0
1070
    74
1070
     0
1000
MTEXTEND
1000
MTEXTBEGIN
1070
    73
1070
     1
1070
    44
1040
1.0
1070
    74
1070
     0
1000
MTEXTEND
1000
MTEXTBEGIN
1070
    73
1070
     1
1070
    44
1040
1.0
1070
    74
1070
     0
1000
MTEXTEND
1000
MTEXTBEGIN
1070
    73
1070
     1
1070
    44
1040
1.0
1070
    74
1070
     0
1000
MTEXTEND
1000
MTEXTBEGIN
1070
    73
1070
     1
1070
    44
1040
1.0
1070
    74
1070
     0
1000
MTEXTEND
1000
MTEXTBEGIN
1070
    73
1070
     1
1070
    44
1040
1.0
1070
    74
1070
     0
1000
MTEXTEND
1000
MTEXTBEGIN
1070
    73
1070
     1
1070
    44
1040
1.0
1070
    74
1070
     0
1000
MTEXTEND
1000
MTEXTBEGIN
1070
    73
1070
     1
1070
    44
1040
1.0
1070
    74
1070
     0
1000
MTEXTEND
1000
MTEXTBEGIN
1070
    73
1070
     1
1070
    44
1040
1.0
1070
    74
1070
     0
1000
MTEXTEND
1000
MTEXTBEGIN
1070
    73
1070
     1
1070
    44
1040
1.0
1070
    74
1070
     0
1000
MTEXTEND
1000
MTEXTBEGIN
1070
    73
1070
     1
1070
    44
1040
1.0
1070
    74
1070
     0
1000
MTEXTEND
1000
MTEXTBEGIN
1070
    73
1070
     1
1070
    44
1040
1.0
1070
    74
1070
     0
1000
MTEXTEND
1000
MTEXTBEGIN
1070
    73
1070
     1
1070
    44
1040
1.0
1070
    74
1070
     0
1000
MTEXTEND
1000
MTEXTBEGIN
1070
    73
1070
     1
1070
    44
1040
1.0
1070
    74
1070
     0
1000
MTEXTEND
1000
MTEXTBEGIN
1070
    73
1070
     1
1070
    44
1040
1.0
1070
    74
1070
     0
1000
MTEXTEND
1000
MTEXTBEGIN
1070
    73
1070
     1
1070
    44
1040
1.0
1070
    74
1070
     0
1000
MTEXTEND
1000
MTEXTBEGIN
1070
    73
1070
     1
1070
    44
1040
1.0
1070
    74
1070
     0
1000
MTEXTEND
1000
MTEXTBEGIN
1070
    73
1070
     1
1070
    44
1040
1.0
1070
    74
1070
     0
1000
MTEXTEND
1000
MTEXTBEGIN
1070
    73
1070
     1
1070
    44
1040
1.0
1070
    74
1070
     0
1000
MTEXTEND
1000
MTEXTBEGIN
1070
    73
1070
     1
1070
    44
1040
1.0
1070
    74
1070
     0
1000
MTEXTEND
1000
MTEXTBEGIN
1070
    73
1070
     1
1070
    44
1040
1.0
1070
    74
1070
     0
1000
MTEXTEND
1000
MTEXTBEGIN
1070
    73
1070
     1
1070
    44
1040
1.0
1070
    74
1070
     0
1000
MTEXTEND
1000
MTEXTBEGIN
1070
    73
1070
     1
1070
    44
1040
1.0
1070
    74
1070
     0
1000
MTEXTEND
1000
MTEXTBEGIN
1070
    73
1070
     1
1070
    44
1040
1.0
1070
    74
1070
     0
1000
MTEXTEND
1000
MTEXTBEGIN
1070
    73
1070
     1
1070
    44
1040
1.0
1070
    74
1070
     0
1000
MTEXTEND
1000
MTEXTBEGIN
1070
    73
1070
     1
1070
    44
1040
1.0
1070
    74
1070
     0
1000
MTEXTEND
1000
MTEXTBEGIN
1070
    73
1070
     1
1070
    44
1040
1.0
1070
    74
1070
     0
1000
MTEXTEND
1000
MTEXTBEGIN
1070
    73
1070
     1
1070
    44
1040
1.0
1070
    74
1070
     0
1000
MTEXTEND
1000
MTEXTBEGIN
1070
    73
1070
     1
1070
    44
1040
1.0
1070
    74
1070
     0
1000
MTEXTEND
1000
MTEXTBEGIN
1070
    73
1070
     1
1070
    44
1040
1.0
1070
    74
1070
     0
1000
MTEXTEND
1000
MTEXTBEGIN
1070
    73
1070
     1
1070
    44
1040
1.0
1070
    74
1070
     0
1000
MTEXTEND
1000
MTEXTBEGIN
1070
    73
1070
     1
1070
    44
1040
1.0
1070
    74
1070
     0
1000
MTEXTEND
1000
MTEXTBEGIN
1070
    73
1070
     1
1070
    44
1040
1.0
1070
    74
1070
     0
1000
MTEXTEND
1000
MTEXTBEGIN
1070
    73
1070
     1
1070
    44
1040
1.0
1070
    74
1070
     0
1000
MTEXTEND
1000
MTEXTBEGIN
1070
    73
1070
     1
1070
    44
1040
1.0
1070
    74
1070
     0
1000
MTEXTEND
1000
MTEXTBEGIN
1070
    73
1070
     1
1070
    44
1040
1.0
1070
    74
1070
     0
1000
MTEXTEND
1000
MTEXTBEGIN
1070
    73
1070
     1
1070
    44
1040
1.0
1070
    74
1070
     0
1000
MTEXTEND
1000
MTEXTBEGIN
1070
    73
1070
     1
1070
    44
1040
1.0
1070
    74
1070
     0
1000
MTEXTEND
1000
MTEXTBEGIN
1070
    73
1070
     1
1070
    44
1040
1.0
1070
    74
1070
     0
1000
MTEXTEND
1000
MTEXTBEGIN
1070
    73
1070
     1
1070
    44
1040
1.0
1070
    74
1070
     0
1000
MTEXTEND
1000
MTEXTBEGIN
1070
    73
1070
     1
1070
    44
1040
1.0
1070
    74
1070
     0
1000
MTEXTEND
1000
MTEXTBEGIN
1070
    73
1070
     1
1070
    44
1040
1.0
1070
    74
1070
     0
1000
MTEXTEND
1000
MTEXTBEGIN
1070
    73
1070
     1
1070
    44
1040
1.0
1070
    74
1070
     0
1000
MTEXTEND
1000
MTEXTBEGIN
1070
    73
1070
     1
1070
    44
1040
1.0
1070
    74
1070
     0
1000
MTEXTEND
1000
MTEXTBEGIN
1070
    73
1070
     1
1070
    44
1040
1.0
1070
    74
1070
     0
1000
MTEXTEND
  0
TEXT
  5
67C5
330
18
100
AcDbEntity
  8
TEXT
100
AcDbText
 10
135.2632639975001
 20
-52.24537011294342
 30
0.0
 40
0.4767431594747765
  1

 41
2.444749927194003
  7
ROMANC
 72
     5
 11
140.0918377586529
 21
-52.24537011294342
 31
0.0
100
AcDbText
  0
LINE
  5
8FDE
330
18
100
AcDbEntity
  8
BEZEL
100
AcDbLine
 10
52.71934135910973
 20
-45.16983768643147
 30
0.0
 11
68.09534135910969
 21
-45.16983768643148
 31
0.0
  0
LINE
  5
8FDF
330
18
100
AcDbEntity
  8
BEZEL
100
AcDbLine
 10
68.28234135910974
 20
-58.9528376864315
 30
0.0
 11
68.28234135910969
 21
-45.35683768643148
 31
0.0
  0
LINE
  5
8FE0
330
18
100
AcDbEntity
  8
BEZEL
100
AcDbLine
 10
52.53234135910973
 20
-58.95283768643148
 30
0.0
 11
52.53234135910973
 21
-45.35683768643147
 31
0.0
  0
LINE
  5
8FE1
330
18
100
AcDbEntity
  8
BEZEL
100
AcDbLine
 10
52.71934135910973
 20
-59.13983768643148
 30
0.0
 11
68.09534135910974
 21
-59.13983768643149
 31
0.0
  0
LINE
  5
92F8
330
18
100
AcDbEntity
  8
BEZEL
100
AcDbLine
 10
52.53234135910972
 20
-61.94578136102059
 30
0.0
 11
52.53234135910973
 21
-64.25878136102063
 31
0.0
  0
LINE
  5
92F9
330
18
100
AcDbEntity
  8
BEZEL
100
AcDbLine
 10
68.28234135910975
 20
-61.94578136102061
 30
0.0
 11
68.28234135910975
 21
-64.25878136102062
 31
0.0
  0
LINE
  5
92FA
330
18
100
AcDbEntity
  8
BEZEL
100
AcDbLine
 10
52.71934135910972
 20
-61.7587813610206
 30
0.0
 11
68.09534135910976
 21
-61.75878136102061
 31
0.0
  0
LINE
  5
936D
330
18
100
AcDbEntity
  8
BEZEL
100
AcDbLine
 10
52.59534135910975
 20
-64.25878136102062
 30
0.0
 11
52.53234135910973
 21
-64.25878136102062
 31
0.0
  0
LINE
  5
9372
330
18
100
AcDbEntity
  8
BEZEL
100
AcDbLine
 10
68.28234135910975
 20
-64.25878136102062
 30
0.0
 11
68.21934135910975
 21
-64.25878136102063
 31
0.0
  0
LINE
  5
9430
330
18
100
AcDbEntity
  8
Buttons
100
AcDbLine
 10
61.97734135910974
 20
-58.50983768643148
 30
0.0
 11
61.97734135910974
 21
-57.76983768643148
 31
0.0
  0
LINE
  5
9431
330
18
100
AcDbEntity
  8
Buttons
100
AcDbLine
 10
61.30734135910976
 20
-57.83983768643149
 30
0.0
 11
61.90734135910975
 21
-57.83983768643149
 31
0.0
  0
LINE
  5
9432
330
18
100
AcDbEntity
  8
Buttons
100
AcDbLine
 10
61.30734135910976
 20
-58.43983768643148
 30
0.0
 11
61.90734135910975
 21
-58.43983768643148
 31
0.0
  0
LINE
  5
9433
330
18
100
AcDbEntity
  8
Buttons
100
AcDbLine
 10
61.30734135910976
 20
-58.43983768643148
 30
0.0
 11
61.30734135910976
 21
-57.83983768643149
 31
0.0
  0
LINE
  5
9434
330
18
100
AcDbEntity
  8
Buttons
100
AcDbLine
 10
61.10734135910975
 20
-58.43983768643148
 30
0.0
 11
61.10734135910975
 21
-57.83983768643149
 31
0.0
  0
LINE
  5
9435
330
18
100
AcDbEntity
  8
Buttons
100
AcDbLine
 10
61.17734135910975
 20
-58.50983768643148
 30
0.0
 11
61.17734135910975
 21
-57.76983768643148
 31
0.0
  0
LINE
  5
9436
330
18
100
AcDbEntity
  8
Buttons
100
AcDbLine
 10
61.23734135910975
 20
-58.50983768643148
 30
0.0
 11
61.23734135910975
 21
-57.76983768643148
 31
0.0
  0
LINE
  5
9437
330
18
100
AcDbEntity
  8
Buttons
100
AcDbLine
 10
61.90734135910975
 20
-58.43983768643148
 30
0.0
 11
61.90734135910975
 21
-57.83983768643149
 31
0.0
  0
LINE
  5
9438
330
18
100
AcDbEntity
  8
Buttons
100
AcDbLine
 10
60.50734135910975
 20
-58.43983768643148
 30
0.0
 11
60.50734135910975
 21
-57.83983768643149
 31
0.0
  0
LINE
  5
9439
330
18
100
AcDbEntity
  8
Buttons
100
AcDbLine
 10
60.30734135910975
 20
-58.43983768643148
 30
0.0
 11
60.30734135910975
 21
-57.83983768643149
 31
0.0
  0
LINE
  5
943A
330
18
100
AcDbEntity
  8
Buttons
100
AcDbLine
 10
60.37734135910975
 20
-58.50983768643148
 30
0.0
 11
60.37734135910975
 21
-57.76983768643148
 31
0.0
  0
LINE
  5
943B
330
18
100
AcDbEntity
  8
Buttons
100
AcDbLine
 10
60.43734135910975
 20
-58.50983768643148
 30
0.0
 11
60.43734135910975
 21
-57.76983768643148
 31
0.0
  0
LINE
  5
943C
330
18
100
AcDbEntity
  8
Buttons
100
AcDbLine
 10
59.70734135910975
 20
-58.43983768643148
 30
0.0
 11
59.70734135910975
 21
-57.83983768643149
 31
0.0
  0
LINE
  5
943D
330
18
100
AcDbEntity
  8
Buttons
100
AcDbLine
 10
59.70734135910975
 20
-58.43983768643148
 30
0.0
 11
60.30734135910975
 21
-58.43983768643148
 31
0.0
  0
LINE
  5
943E
330
18
100
AcDbEntity
  8
Buttons
100
AcDbLine
 10
59.70734135910975
 20
-57.83983768643148
 30
0.0
 11
60.30734135910975
 21
-57.83983768643149
 31
0.0
  0
LINE
  5
943F
330
18
100
AcDbEntity
  8
Buttons
100
AcDbLine
 10
60.43734135910975
 20
-58.50983768643148
 30
0.0
 11
61.17734135910975
 21
-58.50983768643148
 31
0.0
  0
LINE
  5
9440
330
18
100
AcDbEntity
  8
Buttons
100
AcDbLine
 10
60.50734135910975
 20
-58.43983768643148
 30
0.0
 11
61.10734135910975
 21
-58.43983768643148
 31
0.0
  0
LINE
  5
9441
330
18
100
AcDbEntity
  8
Buttons
100
AcDbLine
 10
60.43734135910975
 20
-57.76983768643148
 30
0.0
 11
61.17734135910975
 21
-57.76983768643148
 31
0.0
  0
LINE
  5
9442
330
18
100
AcDbEntity
  8
Buttons
100
AcDbLine
 10
60.50734135910975
 20
-57.83983768643149
 30
0.0
 11
61.10734135910975
 21
-57.83983768643149
 31
0.0
  0
LINE
  5
9443
330
18
100
AcDbEntity
  8
Buttons
100
AcDbLine
 10
61.23734135910975
 20
-57.76983768643148
 30
0.0
 11
61.97734135910974
 21
-57.76983768643148
 31
0.0
  0
LINE
  5
9444
330
18
100
AcDbEntity
  8
Buttons
100
AcDbLine
 10
61.23734135910975
 20
-58.50983768643148
 30
0.0
 11
61.97734135910974
 21
-58.50983768643148
 31
0.0
  0
LINE
  5
9445
330
18
100
AcDbEntity
  8
Buttons
100
AcDbLine
 10
58.90734135910975
 20
-57.83983768643148
 30
0.0
 11
59.50734135910974
 21
-57.83983768643148
 31
0.0
  0
LINE
  5
9446
330
18
100
AcDbEntity
  8
Buttons
100
AcDbLine
 10
58.83734135910974
 20
-57.76983768643148
 30
0.0
 11
59.57734135910975
 21
-57.76983768643148
 31
0.0
  0
LINE
  5
9447
330
18
100
AcDbEntity
  8
Buttons
100
AcDbLine
 10
58.90734135910975
 20
-58.43983768643148
 30
0.0
 11
59.50734135910974
 21
-58.43983768643148
 31
0.0
  0
LINE
  5
9448
330
18
100
AcDbEntity
  8
Buttons
100
AcDbLine
 10
58.83734135910974
 20
-58.50983768643148
 30
0.0
 11
59.57734135910975
 21
-58.50983768643148
 31
0.0
  0
LINE
  5
9449
330
18
100
AcDbEntity
  8
Buttons
100
AcDbLine
 10
58.90734135910975
 20
-58.43983768643148
 30
0.0
 11
58.90734135910975
 21
-57.83983768643149
 31
0.0
  0
LINE
  5
944A
330
18
100
AcDbEntity
  8
Buttons
100
AcDbLine
 10
58.83734135910974
 20
-58.50983768643148
 30
0.0
 11
58.83734135910976
 21
-57.76983768643148
 31
0.0
  0
LINE
  5
944B
330
18
100
AcDbEntity
  8
Buttons
100
AcDbLine
 10
59.57734135910975
 20
-58.50983768643148
 30
0.0
 11
59.57734135910975
 21
-57.76983768643148
 31
0.0
  0
LINE
  5
944C
330
18
100
AcDbEntity
  8
Buttons
100
AcDbLine
 10
59.63734135910975
 20
-58.50983768643148
 30
0.0
 11
59.63734135910975
 21
-57.76983768643148
 31
0.0
  0
LINE
  5
944D
330
18
100
AcDbEntity
  8
Buttons
100
AcDbLine
 10
59.50734135910974
 20
-58.43983768643148
 30
0.0
 11
59.50734135910974
 21
-57.83983768643149
 31
0.0
  0
LINE
  5
944E
330
18
100
AcDbEntity
  8
Buttons
100
AcDbLine
 10
59.63734135910975
 20
-58.50983768643148
 30
0.0
 11
60.37734135910975
 21
-58.50983768643148
 31
0.0
  0
LINE
  5
944F
330
18
100
AcDbEntity
  8
Buttons
100
AcDbLine
 10
59.63734135910975
 20
-57.76983768643148
 30
0.0
 11
60.37734135910975
 21
-57.76983768643148
 31
0.0
  0
MTEXT
  5
9451
330
18
100
AcDbEntity
  8
silk
100
AcDbMText
 10
61.34430448820623
 20
-57.41946269153232
 30
0.0
 40
0.12
 41
1.256199999999999
 71
     1
 72
     5
  1
{\fArial|b0|i0|c0|p34;MENU}
  7
ROMAND
 73
     1
 44
1.0
1001
ACAD
1000
MTEXTBEGIN
1070
    73
1070
     1
1070
    44
1040
1.0
1070
    74
1070
     0
1000
MTEXTEND
1000
MTEXTBEGIN
1070
    73
1070
     1
1070
    44
1040
1.0
1070
    74
1070
     0
1000
MTEXTEND
1000
MTEXTBEGIN
1070
    73
1070
     1
1070
    44
1040
1.0
1070
    74
1070
     0
1000
MTEXTEND
1000
MTEXTBEGIN
1070
    73
1070
     1
1070
    44
1040
1.0
1070
    74
1070
     0
1000
MTEXTEND
1000
MTEXTBEGIN
1070
    73
1070
     1
1070
    44
1040
1.0
1070
    74
1070
     0
1000
MTEXTEND
1000
MTEXTBEGIN
1070
    73
1070
     1
1070
    44
1040
1.0
1070
    74
1070
     0
1000
MTEXTEND
1000
MTEXTBEGIN
1070
    73
1070
     1
1070
    44
1040
1.0
1070
    74
1070
     0
1000
MTEXTEND
1000
MTEXTBEGIN
1070
    73
1070
     1
1070
    44
1040
1.0
1070
    74
1070
     0
1000
MTEXTEND
1000
MTEXTBEGIN
1070
    73
1070
     1
1070
    44
1040
1.0
1070
    74
1070
     0
1000
MTEXTEND
1000
MTEXTBEGIN
1070
    73
1070
     1
1070
    44
1040
1.0
1070
    74
1070
     0
1000
MTEXTEND
1000
MTEXTBEGIN
1070
    73
1070
     1
1070
    44
1040
1.0
1070
    74
1070
     0
1000
MTEXTEND
1000
MTEXTBEGIN
1070
    73
1070
     1
1070
    44
1040
1.0
1070
    74
1070
     0
1000
MTEXTEND
1000
MTEXTBEGIN
1070
    73
1070
     1
1070
    44
1040
1.0
1070
    74
1070
     0
1000
MTEXTEND
1000
MTEXTBEGIN
1070
    73
1070
     1
1070
    44
1040
1.0
1070
    74
1070
     0
1000
MTEXTEND
1000
MTEXTBEGIN
1070
    73
1070
     1
1070
    44
1040
1.0
1070
    74
1070
     0
1000
MTEXTEND
1000
MTEXTBEGIN
1070
    73
1070
     1
1070
    44
1040
1.0
1070
    74
1070
     0
1000
MTEXTEND
1000
MTEXTBEGIN
1070
    73
1070
     1
1070
    44
1040
1.0
1070
    74
1070
     0
1000
MTEXTEND
1000
MTEXTBEGIN
1070
    73
1070
     1
1070
    44
1040
1.0
1070
    74
1070
     0
1000
MTEXTEND
1000
MTEXTBEGIN
1070
    73
1070
     1
1070
    44
1040
1.0
1070
    74
1070
     0
1000
MTEXTEND
1000
MTEXTBEGIN
1070
    73
1070
     1
1070
    44
1040
1.0
1070
    74
1070
     0
1000
MTEXTEND
1000
MTEXTBEGIN
1070
    73
1070
     1
1070
    44
1040
1.0
1070
    74
1070
     0
1000
MTEXTEND
1000
MTEXTBEGIN
1070
    73
1070
     1
1070
    44
1040
1.0
1070
    74
1070
     0
1000
MTEXTEND
1000
MTEXTBEGIN
1070
    73
1070
     1
1070
    44
1040
1.0
1070
    74
1070
     0
1000
MTEXTEND
1000
MTEXTBEGIN
1070
    73
1070
     1
1070
    44
1040
1.0
1070
    74
1070
     0
1000
MTEXTEND
1000
MTEXTBEGIN
1070
    73
1070
     1
1070
    44
1040
1.0
1070
    74
1070
     0
1000
MTEXTEND
1000
MTEXTBEGIN
1070
    73
1070
     1
1070
    44
1040
1.0
1070
    74
1070
     0
1000
MTEXTEND
1000
MTEXTBEGIN
1070
    73
1070
     1
1070
    44
1040
1.0
1070
    74
1070
     0
1000
MTEXTEND
1000
MTEXTBEGIN
1070
    73
1070
     1
1070
    44
1040
1.0
1070
    74
1070
     0
1000
MTEXTEND
1000
MTEXTBEGIN
1070
    73
1070
     1
1070
    44
1040
1.0
1070
    74
1070
     0
1000
MTEXTEND
1000
MTEXTBEGIN
1070
    73
1070
     1
1070
    44
1040
1.0
1070
    74
1070
     0
1000
MTEXTEND
1000
MTEXTBEGIN
1070
    73
1070
     1
1070
    44
1040
1.0
1070
    74
1070
     0
1000
MTEXTEND
1000
MTEXTBEGIN
1070
    73
1070
     1
1070
    44
1040
1.0
1070
    74
1070
     0
1000
MTEXTEND
1000
MTEXTBEGIN
1070
    73
1070
     1
1070
    44
1040
1.0
1070
    74
1070
     0
1000
MTEXTEND
1000
MTEXTBEGIN
1070
    73
1070
     1
1070
    44
1040
1.0
1070
    74
1070
     0
1000
MTEXTEND
1000
MTEXTBEGIN
1070
    73
1070
     1
1070
    44
1040
1.0
1070
    74
1070
     0
1000
MTEXTEND
1000
MTEXTBEGIN
1070
    73
1070
     1
1070
    44
1040
1.0
1070
    74
1070
     0
1000
MTEXTEND
1000
MTEXTBEGIN
1070
    73
1070
     1
1070
    44
1040
1.0
1070
    74
1070
     0
1000
MTEXTEND
1000
MTEXTBEGIN
1070
    73
1070
     1
1070
    44
1040
1.0
1070
    74
1070
     0
1000
MTEXTEND
  0
MTEXT
  5
9452
330
18
100
AcDbEntity
  8
silk
100
AcDbMText
 10
60.53235166346556
 20
-57.41715828088765
 30
0.0
 40
0.12
 41
1.256
 71
     1
 72
     5
  1
{\fArial|b0|i0|c0|p34;RIGHT}
  7
ROMAND
 73
     1
 44
1.0
1001
ACAD
1000
MTEXTBEGIN
1070
    73
1070
     1
1070
    44
1040
1.0
1070
    74
1070
     0
1000
MTEXTEND
1000
MTEXTBEGIN
1070
    73
1070
     1
1070
    44
1040
1.0
1070
    74
1070
     0
1000
MTEXTEND
1000
MTEXTBEGIN
1070
    73
1070
     1
1070
    44
1040
1.0
1070
    74
1070
     0
1000
MTEXTEND
1000
MTEXTBEGIN
1070
    73
1070
     1
1070
    44
1040
1.0
1070
    74
1070
     0
1000
MTEXTEND
1000
MTEXTBEGIN
1070
    73
1070
     1
1070
    44
1040
1.0
1070
    74
1070
     0
1000
MTEXTEND
1000
MTEXTBEGIN
1070
    73
1070
     1
1070
    44
1040
1.0
1070
    74
1070
     0
1000
MTEXTEND
1000
MTEXTBEGIN
1070
    73
1070
     1
1070
    44
1040
1.0
1070
    74
1070
     0
1000
MTEXTEND
1000
MTEXTBEGIN
1070
    73
1070
     1
1070
    44
1040
1.0
1070
    74
1070
     0
1000
MTEXTEND
1000
MTEXTBEGIN
1070
    73
1070
     1
1070
    44
1040
1.0
1070
    74
1070
     0
1000
MTEXTEND
1000
MTEXTBEGIN
1070
    73
1070
     1
1070
    44
1040
1.0
1070
    74
1070
     0
1000
MTEXTEND
1000
MTEXTBEGIN
1070
    73
1070
     1
1070
    44
1040
1.0
1070
    74
1070
     0
1000
MTEXTEND
1000
MTEXTBEGIN
1070
    73
1070
     1
1070
    44
1040
1.0
1070
    74
1070
     0
1000
MTEXTEND
1000
MTEXTBEGIN
1070
    73
1070
     1
1070
    44
1040
1.0
1070
    74
1070
     0
1000
MTEXTEND
1000
MTEXTBEGIN
1070
    73
1070
     1
1070
    44
1040
1.0
1070
    74
1070
     0
1000
MTEXTEND
1000
MTEXTBEGIN
1070
    73
1070
     1
1070
    44
1040
1.0
1070
    74
1070
     0
1000
MTEXTEND
1000
MTEXTBEGIN
1070
    73
1070
     1
1070
    44
1040
1.0
1070
    74
1070
     0
1000
MTEXTEND
1000
MTEXTBEGIN
1070
    73
1070
     1
1070
    44
1040
1.0
1070
    74
1070
     0
1000
MTEXTEND
1000
MTEXTBEGIN
1070
    73
1070
     1
1070
    44
1040
1.0
1070
    74
1070
     0
1000
MTEXTEND
1000
MTEXTBEGIN
1070
    73
1070
     1
1070
    44
1040
1.0
1070
    74
1070
     0
1000
MTEXTEND
1000
MTEXTBEGIN
1070
    73
1070
     1
1070
    44
1040
1.0
1070
    74
1070
     0
1000
MTEXTEND
1000
MTEXTBEGIN
1070
    73
1070
     1
1070
    44
1040
1.0
1070
    74
1070
     0
1000
MTEXTEND
1000
MTEXTBEGIN
1070
    73
1070
     1
1070
    44
1040
1.0
1070
    74
1070
     0
1000
MTEXTEND
1000
MTEXTBEGIN
1070
    73
1070
     1
1070
    44
1040
1.0
1070
    74
1070
     0
1000
MTEXTEND
1000
MTEXTBEGIN
1070
    73
1070
     1
1070
    44
1040
1.0
1070
    74
1070
     0
1000
MTEXTEND
1000
MTEXTBEGIN
1070
    73
1070
     1
1070
    44
1040
1.0
1070
    74
1070
     0
1000
MTEXTEND
1000
MTEXTBEGIN
1070
    73
1070
     1
1070
    44
1040
1.0
1070
    74
1070
     0
1000
MTEXTEND
1000
MTEXTBEGIN
1070
    73
1070
     1
1070
    44
1040
1.0
1070
    74
1070
     0
1000
MTEXTEND
1000
MTEXTBEGIN
1070
    73
1070
     1
1070
    44
1040
1.0
1070
    74
1070
     0
1000
MTEXTEND
1000
MTEXTBEGIN
1070
    73
1070
     1
1070
    44
1040
1.0
1070
    74
1070
     0
1000
MTEXTEND
1000
MTEXTBEGIN
1070
    73
1070
     1
1070
    44
1040
1.0
1070
    74
1070
     0
1000
MTEXTEND
1000
MTEXTBEGIN
1070
    73
1070
     1
1070
    44
1040
1.0
1070
    74
1070
     0
1000
MTEXTEND
1000
MTEXTBEGIN
1070
    73
1070
     1
1070
    44
1040
1.0
1070
    74
1070
     0
1000
MTEXTEND
1000
MTEXTBEGIN
1070
    73
1070
     1
1070
    44
1040
1.0
1070
    74
1070
     0
1000
MTEXTEND
1000
MTEXTBEGIN
1070
    73
1070
     1
1070
    44
1040
1.0
1070
    74
1070
     0
1000
MTEXTEND
1000
MTEXTBEGIN
1070
    73
1070
     1
1070
    44
1040
1.0
1070
    74
1070
     0
1000
MTEXTEND
1000
MTEXTBEGIN
1070
    73
1070
     1
1070
    44
1040
1.0
1070
    74
1070
     0
1000
MTEXTEND
1000
MTEXTBEGIN
1070
    73
1070
     1
1070
    44
1040
1.0
1070
    74
1070
     0
1000
MTEXTEND
1000
MTEXTBEGIN
1070
    73
1070
     1
1070
    44
1040
1.0
1070
    74
1070
     0
1000
MTEXTEND
  0
MTEXT
  5
9453
330
18
100
AcDbEntity
  8
silk
100
AcDbMText
 10
58.97903539797704
 20
-57.41491074597936
 30
0.0
 40
0.12
 41
1.256
 71
     1
 72
     5
  1
{\fArial|b0|i0|c0|p34;AUTO}
  7
ROMAND
 73
     1
 44
1.0
1001
ACAD
1000
MTEXTBEGIN
1070
    73
1070
     1
1070
    44
1040
1.0
1070
    74
1070
     0
1000
MTEXTEND
1000
MTEXTBEGIN
1070
    73
1070
     1
1070
    44
1040
1.0
1070
    74
1070
     0
1000
MTEXTEND
1000
MTEXTBEGIN
1070
    73
1070
     1
1070
    44
1040
1.0
1070
    74
1070
     0
1000
MTEXTEND
1000
MTEXTBEGIN
1070
    73
1070
     1
1070
    44
1040
1.0
1070
    74
1070
     0
1000
MTEXTEND
1000
MTEXTBEGIN
1070
    73
1070
     1
1070
    44
1040
1.0
1070
    74
1070
     0
1000
MTEXTEND
1000
MTEXTBEGIN
1070
    73
1070
     1
1070
    44
1040
1.0
1070
    74
1070
     0
1000
MTEXTEND
1000
MTEXTBEGIN
1070
    73
1070
     1
1070
    44
1040
1.0
1070
    74
1070
     0
1000
MTEXTEND
1000
MTEXTBEGIN
1070
    73
1070
     1
1070
    44
1040
1.0
1070
    74
1070
     0
1000
MTEXTEND
1000
MTEXTBEGIN
1070
    73
1070
     1
1070
    44
1040
1.0
1070
    74
1070
     0
1000
MTEXTEND
1000
MTEXTBEGIN
1070
    73
1070
     1
1070
    44
1040
1.0
1070
    74
1070
     0
1000
MTEXTEND
1000
MTEXTBEGIN
1070
    73
1070
     1
1070
    44
1040
1.0
1070
    74
1070
     0
1000
MTEXTEND
1000
MTEXTBEGIN
1070
    73
1070
     1
1070
    44
1040
1.0
1070
    74
1070
     0
1000
MTEXTEND
1000
MTEXTBEGIN
1070
    73
1070
     1
1070
    44
1040
1.0
1070
    74
1070
     0
1000
MTEXTEND
1000
MTEXTBEGIN
1070
    73
1070
     1
1070
    44
1040
1.0
1070
    74
1070
     0
1000
MTEXTEND
1000
MTEXTBEGIN
1070
    73
1070
     1
1070
    44
1040
1.0
1070
    74
1070
     0
1000
MTEXTEND
1000
MTEXTBEGIN
1070
    73
1070
     1
1070
    44
1040
1.0
1070
    74
1070
     0
1000
MTEXTEND
1000
MTEXTBEGIN
1070
    73
1070
     1
1070
    44
1040
1.0
1070
    74
1070
     0
1000
MTEXTEND
1000
MTEXTBEGIN
1070
    73
1070
     1
1070
    44
1040
1.0
1070
    74
1070
     0
1000
MTEXTEND
1000
MTEXTBEGIN
1070
    73
1070
     1
1070
    44
1040
1.0
1070
    74
1070
     0
1000
MTEXTEND
1000
MTEXTBEGIN
1070
    73
1070
     1
1070
    44
1040
1.0
1070
    74
1070
     0
1000
MTEXTEND
1000
MTEXTBEGIN
1070
    73
1070
     1
1070
    44
1040
1.0
1070
    74
1070
     0
1000
MTEXTEND
1000
MTEXTBEGIN
1070
    73
1070
     1
1070
    44
1040
1.0
1070
    74
1070
     0
1000
MTEXTEND
1000
MTEXTBEGIN
1070
    73
1070
     1
1070
    44
1040
1.0
1070
    74
1070
     0
1000
MTEXTEND
1000
MTEXTBEGIN
1070
    73
1070
     1
1070
    44
1040
1.0
1070
    74
1070
     0
1000
MTEXTEND
1000
MTEXTBEGIN
1070
    73
1070
     1
1070
    44
1040
1.0
1070
    74
1070
     0
1000
MTEXTEND
1000
MTEXTBEGIN
1070
    73
1070
     1
1070
    44
1040
1.0
1070
    74
1070
     0
1000
MTEXTEND
1000
MTEXTBEGIN
1070
    73
1070
     1
1070
    44
1040
1.0
1070
    74
1070
     0
1000
MTEXTEND
1000
MTEXTBEGIN
1070
    73
1070
     1
1070
    44
1040
1.0
1070
    74
1070
     0
1000
MTEXTEND
1000
MTEXTBEGIN
1070
    73
1070
     1
1070
    44
1040
1.0
1070
    74
1070
     0
1000
MTEXTEND
1000
MTEXTBEGIN
1070
    73
1070
     1
1070
    44
1040
1.0
1070
    74
1070
     0
1000
MTEXTEND
1000
MTEXTBEGIN
1070
    73
1070
     1
1070
    44
1040
1.0
1070
    74
1070
     0
1000
MTEXTEND
1000
MTEXTBEGIN
1070
    73
1070
     1
1070
    44
1040
1.0
1070
    74
1070
     0
1000
MTEXTEND
1000
MTEXTBEGIN
1070
    73
1070
     1
1070
    44
1040
1.0
1070
    74
1070
     0
1000
MTEXTEND
1000
MTEXTBEGIN
1070
    73
1070
     1
1070
    44
1040
1.0
1070
    74
1070
     0
1000
MTEXTEND
1000
MTEXTBEGIN
1070
    73
1070
     1
1070
    44
1040
1.0
1070
    74
1070
     0
1000
MTEXTEND
1000
MTEXTBEGIN
1070
    73
1070
     1
1070
    44
1040
1.0
1070
    74
1070
     0
1000
MTEXTEND
1000
MTEXTBEGIN
1070
    73
1070
     1
1070
    44
1040
1.0
1070
    74
1070
     0
1000
MTEXTEND
1000
MTEXTBEGIN
1070
    73
1070
     1
1070
    44
1040
1.0
1070
    74
1070
     0
1000
MTEXTEND
  0
CIRCLE
  5
9640
330
18
100
AcDbEntity
  8
BEZEL
100
AcDbCircle
 10
76.16768483631384
 20
-58.13983768643149
 30
0.0
 40
0.093
  0
CIRCLE
  5
9641
330
18
100
AcDbEntity
  8
BEZEL
100
AcDbCircle
 10
76.16768483631384
 20
-58.13983768643149
 30
0.0
 40
0.156
  0
CIRCLE
  5
9642
330
18
100
AcDbEntity
  8
BEZEL
100
AcDbCircle
 10
77.29268483631385
 20
-54.91983768643148
 30
0.0
 40
0.093
  0
CIRCLE
  5
9643
330
18
100
AcDbEntity
  8
BEZEL
100
AcDbCircle
 10
77.29268483631385
 20
-54.91983768643148
 30
0.0
 40
0.156
  0
CIRCLE
  5
9644
330
18
100
AcDbEntity
  8
BEZEL
100
AcDbCircle
 10
77.29268483631385
 20
-51.91983768643147
 30
0.0
 40
0.093
  0
CIRCLE
  5
9645
330
18
100
AcDbEntity
  8
BEZEL
100
AcDbCircle
 10
77.29268483631385
 20
-51.91983768643147
 30
0.0
 40
0.156
  0
CIRCLE
  5
9646
330
18
100
AcDbEntity
  8
BEZEL
100
AcDbCircle
 10
77.29268483631386
 20
-48.91983768643147
 30
0.0
 40
0.093
  0
CIRCLE
  5
9647
330
18
100
AcDbEntity
  8
BEZEL
100
AcDbCircle
 10
77.29268483631386
 20
-48.91983768643147
 30
0.0
 40
0.156
  0
CIRCLE
  5
9648
330
18
100
AcDbEntity
  8
BEZEL
100
AcDbCircle
 10
77.29268483631386
 20
-45.91983768643148
 30
0.0
 40
0.093
  0
CIRCLE
  5
9649
330
18
100
AcDbEntity
  8
BEZEL
100
AcDbCircle
 10
77.29268483631386
 20
-45.91983768643148
 30
0.0
 40
0.156
  0
LINE
  5
964A
330
18
100
AcDbEntity
  8
BEZEL
100
AcDbLine
 10
77.66768483631384
 20
-55.70283768643148
 30
0.0
 11
76.54268483631383
 21
-55.70283768643148
 31
0.0
  0
LINE
  5
964D
330
18
100
AcDbEntity
  8
BEZEL
100
AcDbLine
 10
75.35468483631382
 20
-59.13983768643149
 30
0.0
 11
76.54268483631383
 21
-59.13983768643149
 31
0.0
  0
LINE
  5
964E
330
18
100
AcDbEntity
  8
BEZEL
100
AcDbLine
 10
75.35468483631383
 20
-45.16983768643147
 30
0.0
 11
77.66768483631385
 21
-45.16983768643147
 31
0.0
  0
LINE
  5
964F
330
18
100
AcDbEntity
  8
BEZEL
100
AcDbLine
 10
75.16768483631384
 20
-45.35683768643147
 30
0.0
 11
75.16768483631382
 21
-58.95283768643149
 31
0.0
  0
LINE
  5
9651
330
18
100
AcDbEntity
  8
BEZEL
100
AcDbLine
 10
77.66768483631384
 20
-55.70283768643148
 30
0.0
 11
77.66768483631385
 21
-45.16983768643147
 31
0.0
  0
LINE
  5
9653
330
18
100
AcDbEntity
  8
BEZEL
100
AcDbLine
 10
76.54268483631385
 20
-55.70283768643148
 30
0.0
 11
76.54268483631383
 21
-59.13983768643147
 31
0.0
  0
CIRCLE
  5
9685
330
18
100
AcDbEntity
  8
BEZEL
100
AcDbCircle
 10
53.65734135910973
 20
-62.75878136102063
 30
0.0
 40
0.093
  0
CIRCLE
  5
9686
330
18
100
AcDbEntity
  8
BEZEL
100
AcDbCircle
 10
53.65734135910973
 20
-62.75878136102063
 30
0.0
 40
0.156
  0
CIRCLE
  5
9689
330
18
100
AcDbEntity
  8
BEZEL
100
AcDbCircle
 10
58.15734135910973
 20
-62.75878136102064
 30
0.0
 40
0.093
  0
CIRCLE
  5
968A
330
18
100
AcDbEntity
  8
BEZEL
100
AcDbCircle
 10
58.15734135910973
 20
-62.75878136102064
 30
0.0
 40
0.156
  0
CIRCLE
  5
968F
330
18
100
AcDbEntity
  8
BEZEL
100
AcDbCircle
 10
67.15734135910974
 20
-62.75878136102065
 30
0.0
 40
0.093
  0
CIRCLE
  5
9690
330
18
100
AcDbEntity
  8
BEZEL
100
AcDbCircle
 10
67.15734135910974
 20
-62.75878136102065
 30
0.0
 40
0.156
  0
CIRCLE
  5
9691
330
18
100
AcDbEntity
  8
BEZEL
100
AcDbCircle
 10
62.65734135910974
 20
-62.75878136102064
 30
0.0
 40
0.156
  0
CIRCLE
  5
9692
330
18
100
AcDbEntity
  8
BEZEL
100
AcDbCircle
 10
62.65734135910974
 20
-62.75878136102064
 30
0.0
 40
0.093
  0
LINE
  5
96C1
330
18
100
AcDbEntity
  8
BEZEL
100
AcDbLine
 10
67.24734135910978
 20
-56.88183768643147
 30
0.0
 11
67.24734135910974
 21
-45.86283768643149
 31
0.0
  0
LINE
  5
96C2
330
18
100
AcDbEntity
  8
BEZEL
100
AcDbLine
 10
53.5673413591097
 20
-56.88183768643146
 30
0.0
 11
67.24734135910978
 21
-56.88183768643148
 31
0.0
  0
LINE
  5
96C3
330
18
100
AcDbEntity
  8
BEZEL
100
AcDbLine
 10
53.56734135910976
 20
-45.86283768643148
 30
0.0
 11
67.24734135910975
 21
-45.86283768643148
 31
0.0
  0
LINE
  5
96C4
330
18
100
AcDbEntity
  8
BEZEL
100
AcDbLine
 10
53.56734135910972
 20
-56.88183768643146
 30
0.0
 11
53.56734135910975
 21
-45.86283768643147
 31
0.0
  0
LINE
  5
96C5
330
18
100
AcDbEntity
  8
BEZEL
100
AcDbLine
 10
52.59534135910974
 20
-63.13378136102063
 30
0.0
 11
52.53234135910973
 21
-63.13378136102063
 31
0.0
  0
LINE
  5
96C7
330
18
100
AcDbEntity
  8
BEZEL
100
AcDbLine
 10
68.21934135910976
 20
-63.13378136102063
 30
0.0
 11
68.28234135910975
 21
-63.13378136102063
 31
0.0
  0
LINE
  5
96C8
330
18
100
AcDbEntity
  8
BEZEL
100
AcDbLine
 10
52.59534135910974
 20
-63.13378136102063
 30
0.0
 11
68.21934135910976
 21
-63.13378136102063
 31
0.0
  0
LINE
  5
96C9
330
18
100
AcDbEntity
  8
BEZEL
100
AcDbLine
 10
68.28234135910975
 20
-64.25878136102062
 30
0.0
 11
52.59534135910975
 21
-64.25878136102062
 31
0.0
  0
LINE
  5
96CA
330
18
100
AcDbEntity
  8
BEZEL
100
AcDbLine
 10
52.59534135910975
 20
-63.13378136102063
 30
0.0
 11
52.59534135910975
 21
-64.25878136102062
 31
0.0
  0
LINE
  5
96CB
330
18
100
AcDbEntity
  8
BEZEL
100
AcDbLine
 10
68.21934135910976
 20
-63.13378136102063
 30
0.0
 11
68.21934135910976
 21
-64.25878136102062
 31
0.0
  0
MTEXT
  5
9739
330
18
100
AcDbEntity
  8
silk
100
AcDbMText
 10
59.79068187189965
 20
-57.41715828088765
 30
0.0
 40
0.12
 41
1.256
 71
     1
 72
     5
  1
{\fArial|b0|i0|c0|p34;LEFT}
  7
ROMAND
 73
     1
 44
1.0
1001
ACAD
1000
MTEXTBEGIN
1070
    73
1070
     1
1070
    44
1040
1.0
1070
    74
1070
     0
1000
MTEXTEND
1000
MTEXTBEGIN
1070
    73
1070
     1
1070
    44
1040
1.0
1070
    74
1070
     0
1000
MTEXTEND
1000
MTEXTBEGIN
1070
    73
1070
     1
1070
    44
1040
1.0
1070
    74
1070
     0
1000
MTEXTEND
1000
MTEXTBEGIN
1070
    73
1070
     1
1070
    44
1040
1.0
1070
    74
1070
     0
1000
MTEXTEND
1000
MTEXTBEGIN
1070
    73
1070
     1
1070
    44
1040
1.0
1070
    74
1070
     0
1000
MTEXTEND
1000
MTEXTBEGIN
1070
    73
1070
     1
1070
    44
1040
1.0
1070
    74
1070
     0
1000
MTEXTEND
1000
MTEXTBEGIN
1070
    73
1070
     1
1070
    44
1040
1.0
1070
    74
1070
     0
1000
MTEXTEND
1000
MTEXTBEGIN
1070
    73
1070
     1
1070
    44
1040
1.0
1070
    74
1070
     0
1000
MTEXTEND
1000
MTEXTBEGIN
1070
    73
1070
     1
1070
    44
1040
1.0
1070
    74
1070
     0
1000
MTEXTEND
1000
MTEXTBEGIN
1070
    73
1070
     1
1070
    44
1040
1.0
1070
    74
1070
     0
1000
MTEXTEND
1000
MTEXTBEGIN
1070
    73
1070
     1
1070
    44
1040
1.0
1070
    74
1070
     0
1000
MTEXTEND
1000
MTEXTBEGIN
1070
    73
1070
     1
1070
    44
1040
1.0
1070
    74
1070
     0
1000
MTEXTEND
1000
MTEXTBEGIN
1070
    73
1070
     1
1070
    44
1040
1.0
1070
    74
1070
     0
1000
MTEXTEND
1000
MTEXTBEGIN
1070
    73
1070
     1
1070
    44
1040
1.0
1070
    74
1070
     0
1000
MTEXTEND
1000
MTEXTBEGIN
1070
    73
1070
     1
1070
    44
1040
1.0
1070
    74
1070
     0
1000
MTEXTEND
1000
MTEXTBEGIN
1070
    73
1070
     1
1070
    44
1040
1.0
1070
    74
1070
     0
1000
MTEXTEND
1000
MTEXTBEGIN
1070
    73
1070
     1
1070
    44
1040
1.0
1070
    74
1070
     0
1000
MTEXTEND
1000
MTEXTBEGIN
1070
    73
1070
     1
1070
    44
1040
1.0
1070
    74
1070
     0
1000
MTEXTEND
1000
MTEXTBEGIN
1070
    73
1070
     1
1070
    44
1040
1.0
1070
    74
1070
     0
1000
MTEXTEND
1000
MTEXTBEGIN
1070
    73
1070
     1
1070
    44
1040
1.0
1070
    74
1070
     0
1000
MTEXTEND
1000
MTEXTBEGIN
1070
    73
1070
     1
1070
    44
1040
1.0
1070
    74
1070
     0
1000
MTEXTEND
1000
MTEXTBEGIN
1070
    73
1070
     1
1070
    44
1040
1.0
1070
    74
1070
     0
1000
MTEXTEND
1000
MTEXTBEGIN
1070
    73
1070
     1
1070
    44
1040
1.0
1070
    74
1070
     0
1000
MTEXTEND
1000
MTEXTBEGIN
1070
    73
1070
     1
1070
    44
1040
1.0
1070
    74
1070
     0
1000
MTEXTEND
1000
MTEXTBEGIN
1070
    73
1070
     1
1070
    44
1040
1.0
1070
    74
1070
     0
1000
MTEXTEND
1000
MTEXTBEGIN
1070
    73
1070
     1
1070
    44
1040
1.0
1070
    74
1070
     0
1000
MTEXTEND
1000
MTEXTBEGIN
1070
    73
1070
     1
1070
    44
1040
1.0
1070
    74
1070
     0
1000
MTEXTEND
1000
MTEXTBEGIN
1070
    73
1070
     1
1070
    44
1040
1.0
1070
    74
1070
     0
1000
MTEXTEND
1000
MTEXTBEGIN
1070
    73
1070
     1
1070
    44
1040
1.0
1070
    74
1070
     0
1000
MTEXTEND
1000
MTEXTBEGIN
1070
    73
1070
     1
1070
    44
1040
1.0
1070
    74
1070
     0
1000
MTEXTEND
1000
MTEXTBEGIN
1070
    73
1070
     1
1070
    44
1040
1.0
1070
    74
1070
     0
1000
MTEXTEND
1000
MTEXTBEGIN
1070
    73
1070
     1
1070
    44
1040
1.0
1070
    74
1070
     0
1000
MTEXTEND
1000
MTEXTBEGIN
1070
    73
1070
     1
1070
    44
1040
1.0
1070
    74
1070
     0
1000
MTEXTEND
1000
MTEXTBEGIN
1070
    73
1070
     1
1070
    44
1040
1.0
1070
    74
1070
     0
1000
MTEXTEND
1000
MTEXTBEGIN
1070
    73
1070
     1
1070
    44
1040
1.0
1070
    74
1070
     0
1000
MTEXTEND
1000
MTEXTBEGIN
1070
    73
1070
     1
1070
    44
1040
1.0
1070
    74
1070
     0
1000
MTEXTEND
1000
MTEXTBEGIN
1070
    73
1070
     1
1070
    44
1040
1.0
1070
    74
1070
     0
1000
MTEXTEND
1000
MTEXTBEGIN
1070
    73
1070
     1
1070
    44
1040
1.0
1070
    74
1070
     0
1000
MTEXTEND
  0
MTEXT
  5
973A
330
18
100
AcDbEntity
  8
silk
100
AcDbMText
 10
57.27749728968575
 20
-57.41518390904098
 30
0.0
 40
0.12
 41
1.256
 71
     1
 72
     5
  1
{\fArial|b0|i0|c0|p34;POWER}
  7
ROMAND
 73
     1
 44
1.0
1001
ACAD
1000
MTEXTBEGIN
1070
    73
1070
     1
1070
    44
1040
1.0
1070
    74
1070
     0
1000
MTEXTEND
1000
MTEXTBEGIN
1070
    73
1070
     1
1070
    44
1040
1.0
1070
    74
1070
     0
1000
MTEXTEND
1000
MTEXTBEGIN
1070
    73
1070
     1
1070
    44
1040
1.0
1070
    74
1070
     0
1000
MTEXTEND
1000
MTEXTBEGIN
1070
    73
1070
     1
1070
    44
1040
1.0
1070
    74
1070
     0
1000
MTEXTEND
1000
MTEXTBEGIN
1070
    73
1070
     1
1070
    44
1040
1.0
1070
    74
1070
     0
1000
MTEXTEND
1000
MTEXTBEGIN
1070
    73
1070
     1
1070
    44
1040
1.0
1070
    74
1070
     0
1000
MTEXTEND
1000
MTEXTBEGIN
1070
    73
1070
     1
1070
    44
1040
1.0
1070
    74
1070
     0
1000
MTEXTEND
1000
MTEXTBEGIN
1070
    73
1070
     1
1070
    44
1040
1.0
1070
    74
1070
     0
1000
MTEXTEND
1000
MTEXTBEGIN
1070
    73
1070
     1
1070
    44
1040
1.0
1070
    74
1070
     0
1000
MTEXTEND
1000
MTEXTBEGIN
1070
    73
1070
     1
1070
    44
1040
1.0
1070
    74
1070
     0
1000
MTEXTEND
1000
MTEXTBEGIN
1070
    73
1070
     1
1070
    44
1040
1.0
1070
    74
1070
     0
1000
MTEXTEND
1000
MTEXTBEGIN
1070
    73
1070
     1
1070
    44
1040
1.0
1070
    74
1070
     0
1000
MTEXTEND
1000
MTEXTBEGIN
1070
    73
1070
     1
1070
    44
1040
1.0
1070
    74
1070
     0
1000
MTEXTEND
1000
MTEXTBEGIN
1070
    73
1070
     1
1070
    44
1040
1.0
1070
    74
1070
     0
1000
MTEXTEND
1000
MTEXTBEGIN
1070
    73
1070
     1
1070
    44
1040
1.0
1070
    74
1070
     0
1000
MTEXTEND
1000
MTEXTBEGIN
1070
    73
1070
     1
1070
    44
1040
1.0
1070
    74
1070
     0
1000
MTEXTEND
1000
MTEXTBEGIN
1070
    73
1070
     1
1070
    44
1040
1.0
1070
    74
1070
     0
1000
MTEXTEND
1000
MTEXTBEGIN
1070
    73
1070
     1
1070
    44
1040
1.0
1070
    74
1070
     0
1000
MTEXTEND
1000
MTEXTBEGIN
1070
    73
1070
     1
1070
    44
1040
1.0
1070
    74
1070
     0
1000
MTEXTEND
1000
MTEXTBEGIN
1070
    73
1070
     1
1070
    44
1040
1.0
1070
    74
1070
     0
1000
MTEXTEND
1000
MTEXTBEGIN
1070
    73
1070
     1
1070
    44
1040
1.0
1070
    74
1070
     0
1000
MTEXTEND
1000
MTEXTBEGIN
1070
    73
1070
     1
1070
    44
1040
1.0
1070
    74
1070
     0
1000
MTEXTEND
1000
MTEXTBEGIN
1070
    73
1070
     1
1070
    44
1040
1.0
1070
    74
1070
     0
1000
MTEXTEND
1000
MTEXTBEGIN
1070
    73
1070
     1
1070
    44
1040
1.0
1070
    74
1070
     0
1000
MTEXTEND
1000
MTEXTBEGIN
1070
    73
1070
     1
1070
    44
1040
1.0
1070
    74
1070
     0
1000
MTEXTEND
1000
MTEXTBEGIN
1070
    73
1070
     1
1070
    44
1040
1.0
1070
    74
1070
     0
1000
MTEXTEND
1000
MTEXTBEGIN
1070
    73
1070
     1
1070
    44
1040
1.0
1070
    74
1070
     0
1000
MTEXTEND
1000
MTEXTBEGIN
1070
    73
1070
     1
1070
    44
1040
1.0
1070
    74
1070
     0
1000
MTEXTEND
1000
MTEXTBEGIN
1070
    73
1070
     1
1070
    44
1040
1.0
1070
    74
1070
     0
1000
MTEXTEND
1000
MTEXTBEGIN
1070
    73
1070
     1
1070
    44
1040
1.0
1070
    74
1070
     0
1000
MTEXTEND
1000
MTEXTBEGIN
1070
    73
1070
     1
1070
    44
1040
1.0
1070
    74
1070
     0
1000
MTEXTEND
1000
MTEXTBEGIN
1070
    73
1070
     1
1070
    44
1040
1.0
1070
    74
1070
     0
1000
MTEXTEND
1000
MTEXTBEGIN
1070
    73
1070
     1
1070
    44
1040
1.0
1070
    74
1070
     0
1000
MTEXTEND
1000
MTEXTBEGIN
1070
    73
1070
     1
1070
    44
1040
1.0
1070
    74
1070
     0
1000
MTEXTEND
1000
MTEXTBEGIN
1070
    73
1070
     1
1070
    44
1040
1.0
1070
    74
1070
     0
1000
MTEXTEND
1000
MTEXTBEGIN
1070
    73
1070
     1
1070
    44
1040
1.0
1070
    74
1070
     0
1000
MTEXTEND
1000
MTEXTBEGIN
1070
    73
1070
     1
1070
    44
1040
1.0
1070
    74
1070
     0
1000
MTEXTEND
1000
MTEXTBEGIN
1070
    73
1070
     1
1070
    44
1040
1.0
1070
    74
1070
     0
1000
MTEXTEND
  0
ARC
  5
98B5
330
18
100
AcDbEntity
  8
Chassis
100
AcDbCircle
 10
59.22050184856892
 20
-63.51030571931007
 30
0.0
 40
0.235
100
AcDbArc
 50
359.9999999999992
 51
90.0
  0
CIRCLE
  5
98B6
330
18
100
AcDbEntity
  8
Chassis
100
AcDbCircle
 10
59.59550184856891
 20
-63.73030571931007
 30
0.0
 40
0.08
  0
ARC
  5
98B7
330
18
100
AcDbEntity
  8
Chassis
100
AcDbCircle
 10
58.39550184856889
 20
-63.51030571931007
 30
0.0
 40
0.235
100
AcDbArc
 50
90.0
 51
180.0
  0
CIRCLE
  5
98B8
330
18
100
AcDbEntity
  8
Chassis
100
AcDbCircle
 10
58.02050184856892
 20
-63.73030571931007
 30
0.0
 40
0.08
  0
LINE
  5
98B9
330
18
100
AcDbEntity
  8
Chassis
100
AcDbLine
 10
59.22050184856892
 20
-63.27530571931008
 30
0.0
 11
58.39550184856889
 21
-63.27530571931006
 31
0.0
  0
LINE
  5
98BB
330
18
100
AcDbEntity
  8
Chassis
100
AcDbLine
 10
58.16050184856891
 20
-63.51030571931007
 30
0.0
 11
58.16050184856891
 21
-63.95030571931006
 31
0.0
  0
LINE
  5
98BC
330
18
100
AcDbEntity
  8
Chassis
100
AcDbLine
 10
59.45550184856893
 20
-63.51030571931007
 30
0.0
 11
59.4555018485689
 21
-63.95030571931008
 31
0.0
  0
LINE
  5
98BD
330
18
100
AcDbEntity
  8
Chassis
100
AcDbLine
 10
57.38855191212349
 20
-63.76902478189101
 30
0.0
 11
57.38855191212349
 21
-63.53153794015025
 31
0.0
  0
ARC
  5
98BE
330
18
100
AcDbEntity
  8
Chassis
100
AcDbCircle
 10
57.16855191212349
 20
-63.65028136102063
 30
0.0
 40
0.25
100
AcDbArc
 50
28.35763657632838
 51
331.6423634236716
  0
ARC
  5
98BF
330
18
100
AcDbEntity
  8
Chassis
100
AcDbCircle
 10
55.28464747364734
 20
-63.74628136102062
 30
0.0
 40
0.06
100
AcDbArc
 50
270.0
 51
10.00000000000021
  0
ARC
  5
98C0
330
18
100
AcDbEntity
  8
Chassis
100
AcDbCircle
 10
55.25079269335131
 20
-63.55428136102064
 30
0.0
 40
0.06
100
AcDbArc
 50
10.00000000000021
 51
90.0
  0
LINE
  5
98C1
330
18
100
AcDbEntity
  8
Chassis
100
AcDbLine
 10
55.34373593882808
 20
-63.73586247036062
 30
0.0
 11
55.30988115853205
 21
-63.54386247036062
 31
0.0
  0
CIRCLE
  5
98C2
330
18
100
AcDbEntity
  8
Chassis
100
AcDbCircle
 10
55.526152689203
 20
-63.65028136102063
 30
0.0
 40
0.055
  0
ARC
  5
98D2
330
18
100
AcDbEntity
  8
Chassis
100
AcDbCircle
 10
54.81751268505468
 20
-63.55428136102064
 30
0.0
 40
0.06
100
AcDbArc
 50
90.0
 51
169.999999999999
  0
ARC
  5
98D3
330
18
100
AcDbEntity
  8
Chassis
100
AcDbCircle
 10
54.78365790475866
 20
-63.74628136102064
 30
0.0
 40
0.06
100
AcDbArc
 50
169.9999999999997
 51
270.0
  0
LINE
  5
98D4
330
18
100
AcDbEntity
  8
Chassis
100
AcDbLine
 10
54.72456943957792
 20
-63.73586247036062
 30
0.0
 11
54.75842421987394
 21
-63.54386247036062
 31
0.0
  0
CIRCLE
  5
98D5
330
18
100
AcDbEntity
  8
Chassis
100
AcDbCircle
 10
54.54215268920299
 20
-63.65028136102063
 30
0.0
 40
0.055
  0
ARC
  5
98D6
330
18
100
AcDbEntity
  8
Chassis
100
AcDbCircle
 10
53.78464747364734
 20
-63.74628136102062
 30
0.0
 40
0.06
100
AcDbArc
 50
270.0
 51
10.00000000000021
  0
CIRCLE
  5
98D7
330
18
100
AcDbEntity
  8
Chassis
100
AcDbCircle
 10
54.026152689203
 20
-63.65028136102063
 30
0.0
 40
0.055
  0
ARC
  5
98D8
330
18
100
AcDbEntity
  8
Chassis
100
AcDbCircle
 10
53.75079269335131
 20
-63.55428136102064
 30
0.0
 40
0.06
100
AcDbArc
 50
10.00000000000021
 51
90.0
  0
LINE
  5
98D9
330
18
100
AcDbEntity
  8
Chassis
100
AcDbLine
 10
53.84373593882807
 20
-63.73586247036062
 30
0.0
 11
53.80988115853205
 21
-63.54386247036062
 31
0.0
  0
ARC
  5
98DA
330
18
100
AcDbEntity
  8
Chassis
100
AcDbCircle
 10
53.31751268505468
 20
-63.55428136102064
 30
0.0
 40
0.06
100
AcDbArc
 50
90.0
 51
169.999999999999
  0
ARC
  5
98DB
330
18
100
AcDbEntity
  8
Chassis
100
AcDbCircle
 10
53.28365790475865
 20
-63.74628136102064
 30
0.0
 40
0.06
100
AcDbArc
 50
169.9999999999997
 51
270.0
  0
CIRCLE
  5
98DC
330
18
100
AcDbEntity
  8
Chassis
100
AcDbCircle
 10
53.04215268920299
 20
-63.65028136102063
 30
0.0
 40
0.055
  0
LINE
  5
98DD
330
18
100
AcDbEntity
  8
Chassis
100
AcDbLine
 10
53.22456943957792
 20
-63.73586247036062
 30
0.0
 11
53.25842421987394
 21
-63.54386247036062
 31
0.0
  0
LINE
  5
98DE
330
18
100
AcDbEntity
  8
Chassis
100
AcDbLine
 10
53.28365790475865
 20
-63.80628136102062
 30
0.0
 11
53.78464747364734
 21
-63.80628136102062
 31
0.0
  0
LINE
  5
98DF
330
18
100
AcDbEntity
  8
Chassis
100
AcDbLine
 10
53.31751268505468
 20
-63.49428136102064
 30
0.0
 11
53.75079269335131
 21
-63.49428136102064
 31
0.0
  0
LINE
  5
98E3
330
18
100
AcDbEntity
  8
Chassis
100
AcDbLine
 10
54.78365790475866
 20
-63.80628136102062
 30
0.0
 11
55.28464747364734
 21
-63.80628136102062
 31
0.0
  0
LINE
  5
98E4
330
18
100
AcDbEntity
  8
Chassis
100
AcDbLine
 10
54.81751268505468
 20
-63.49428136102064
 30
0.0
 11
55.25079269335131
 21
-63.49428136102064
 31
0.0
  0
LINE
  5
9A76
330
18
100
AcDbEntity
  8
0
100
AcDbLine
 10
84.25854249286379
 20
-67.03879579926928
 30
0.0
 11
84.25854249286379
 21
-43.05702472874306
 31
0.0
  0
LINE
  5
9A77
330
18
100
AcDbEntity
  8
0
100
AcDbLine
 10
51.25324158423828
 20
-43.05702472874307
 30
0.0
 11
51.25324158423828
 21
-67.03879579926928
 31
0.0
  0
LINE
  5
9A79
330
18
100
AcDbEntity
  8
0
100
AcDbLine
 10
51.25324158423828
 20
-67.03879579926928
 30
0.0
 11
84.25854249286379
 21
-67.03879579926928
 31
0.0
  0
LINE
  5
9B63
330
18
100
AcDbEntity
  8
0
100
AcDbLine
 10
74.17971535840752
 20
-67.03879579926928
 30
0.0
 11
74.17971535840749
 21
-61.97042008510308
 31
0.0
  0
TEXT
  5
9B64
330
18
100
AcDbEntity
  8
TEXT
100
AcDbText
 10
78.04227871078106
 20
-66.08622761152203
 30
0.0
 40
0.4050000000000001
  1
3017 Outline
  7
ROMANC
100
AcDbText
  0
LINE
  5
9B65
330
18
100
AcDbEntity
  8
0
100
AcDbLine
 10
74.17971535840749
 20
-66.55609335030108
 30
0.0
 11
84.25854249286377
 21
-66.55609335030108
 31
0.0
  0
LINE
  5
9B66
330
18
100
AcDbEntity
  8
0
100
AcDbLine
 10
74.17971535840749
 20
-65.10798600339644
 30
0.0
 11
84.25854249286377
 21
-65.10798600339644
 31
0.0
  0
TEXT
  5
9B67
330
18
100
AcDbEntity
  8
0
100
AcDbText
 10
75.33137069642056
 20
-66.1443840093694
 30
0.0
 40
0.4633943510094827
  1
0YRL4
  7
ROMAND
100
AcDbText
  0
TEXT
  5
9B68
330
18
100
AcDbEntity
  8
TEXT
100
AcDbText
 10
75.3798242560855
 20
-64.06853118148678
 30
0.0
 40
0.5148826122327586
  1
LCD 3017
  7
ROMANC
100
AcDbText
  0
TEXT
  5
9B69
330
18
100
AcDbEntity
  8
TEXT
100
AcDbText
 10
75.17982642105415
 20
-64.84268950367343
 30
0.0
 40
0.5148826122327586
  1
Standard Unit
  7
ROMANC
100
AcDbText
  0
LINE
  5
9B6A
330
18
100
AcDbEntity
  8
0
100
AcDbLine
 10
75.14512025634394
 20
-66.55609335030108
 30
0.0
 11
75.14512025634394
 21
-65.10798600339644
 31
0.0
  0
TEXT
  5
9B6B
330
18
100
AcDbEntity
  8
0
100
AcDbText
 10
74.26304225809447
 20
-66.75034027713047
 30
0.0
 40
0.1216410171399892
  1
SCALE
  7
ROMANS
 72
     1
 11
74.54107886870017
 21
-66.75034027713047
 31
0.0
100
AcDbText
  0
TEXT
  5
9B6C
330
18
100
AcDbEntity
  8
0
100
AcDbText
 10
74.43917029457904
 20
-66.1443840093694
 30
0.0
 40
0.4633943510094827
  1
A
  7
ROMAND
100
AcDbText
  0
TEXT
  5
9B6D
330
18
100
AcDbEntity
  8
0
100
AcDbText
 10
74.4654752081967
 20
-65.30018074858682
 30
0.0
 40
0.1216410171399892
  1
SIZE
  7
ROMANS
 72
     1
 11
74.66241780737573
 21
-65.30018074858682
 31
0.0
100
AcDbText
  0
TEXT
  5
9B6E
330
18
100
AcDbEntity
  8
0
100
AcDbText
 10
74.425989261328
 20
-63.556287894495
 30
0.0
 40
0.1216410171399892
  1
TITLE
  7
ROMANS
100
AcDbText
  0
LINE
  5
9B6F
330
18
100
AcDbEntity
  8
0
100
AcDbLine
 10
77.55863250118501
 20
-66.55609335030108
 30
0.0
 11
77.55863250118501
 21
-65.10798600339644
 31
0.0
  0
TEXT
  5
9B70
330
18
100
AcDbEntity
  8
TEXT
100
AcDbText
 10
78.14632799725678
 20
-66.93015223794303
 30
0.0
 40
0.2574413061163793
  1
03/03/03
  7
ROMANC
100
AcDbText
  0
TEXT
  5
9B71
330
18
100
AcDbEntity
  8
0
100
AcDbText
 10
76.60959013598763
 20
-66.74947407226638
 30
0.0
 40
0.1216410171399892
  1
RELEASE DATE
  7
ROMANS
 72
     1
 11
77.27571951556376
 21
-66.74947407226638
 31
0.0
100
AcDbText
  0
LINE
  5
9B72
330
18
100
AcDbEntity
  8
0
100
AcDbLine
 10
76.53337249957653
 20
-67.03879579926928
 30
0.0
 11
76.53337249957653
 21
-66.55609335030108
 31
0.0
  0
LINE
  5
9B73
330
18
100
AcDbEntity
  8
0
100
AcDbLine
 10
76.16991763906759
 20
-66.03471524235253
 30
0.0
 11
76.16991763906759
 21
-65.63246320154568
 31
0.0
  0
LINE
  5
9B74
330
18
100
AcDbEntity
  8
0
100
AcDbLine
 10
80.93754964396248
 20
-67.03879579926928
 30
0.0
 11
80.93754964396248
 21
-66.55609335030108
 31
0.0
  0
TEXT
  5
9B75
330
18
100
AcDbEntity
  8
0
100
AcDbText
 10
81.02647241487277
 20
-66.7479605223918
 30
0.0
 40
0.1216410171399892
  1
SHEET
  7
ROMANS
 72
     1
 11
81.31030145486608
 21
-66.7479605223918
 31
0.0
100
AcDbText
  0
TEXT
  5
9B76
330
18
100
AcDbEntity
  8
0
100
AcDbText
 10
75.81388672075013
 20
-65.30018074858682
 30
0.0
 40
0.1216410171399892
  1
CAGE CODE
  7
ROMANS
 72
     1
 11
76.34679022441104
 21
-65.30018074858682
 31
0.0
100
AcDbText
  0
TEXT
  5
9B77
330
18
100
AcDbEntity
  8
0
100
AcDbText
 10
77.59960336907282
 20
-65.2890489861415
 30
0.0
 40
0.1216410171399892
  1
DWG NO.
  7
ROMANS
 72
     1
 11
78.00796964089993
 21
-65.2890489861415
 31
0.0
100
AcDbText
  0
LINE
  5
9B78
330
18
100
AcDbEntity
  8
0
100
AcDbLine
 10
83.12104405205674
 20
-66.55609335030108
 30
0.0
 11
83.12104405205674
 21
-65.10798600339644
 31
0.0
  0
TEXT
  5
9B79
330
18
100
AcDbEntity
  8
TEXT
100
AcDbText
 10
81.85344310579347
 20
-66.91632792865776
 30
0.0
 40
0.2574413061163793
  1
1
  7
ROMANC
100
AcDbText
  0
TEXT
  5
9B7A
330
18
100
AcDbEntity
  8
0
100
AcDbText
 10
82.73616375138749
 20
-66.75142068893807
 30
0.0
 40
0.1216410171399892
  1
OF
  7
ROMANS
 72
     1
 11
82.85780476852748
 21
-66.75142068893807
 31
0.0
100
AcDbText
  0
TEXT
  5
9B7B
330
18
100
AcDbEntity
  8
TEXT
100
AcDbText
 10
83.34735516841139
 20
-66.91632792865776
 30
0.0
 40
0.2574413061163793
  1
1
  7
ROMANC
100
AcDbText
  0
TEXT
  5
9B7C
330
18
100
AcDbEntity
  8
0
100
AcDbText
 10
83.41599432788729
 20
-66.12830511593505
 30
0.0
 40
0.4633943510094827
  1
IR
  7
ROMAND
100
AcDbText
  0
TEXT
  5
9B7D
330
18
100
AcDbEntity
  8
0
100
AcDbText
 10
83.45657175952501
 20
-65.2890489861415
 30
0.0
 40
0.1216410171399892
  1
REV
  7
ROMANS
 72
     1
 11
83.63324085584739
 21
-65.2890489861415
 31
0.0
100
AcDbText
  0
LINE
  5
9B7E
330
18
100
AcDbEntity
  8
0
100
AcDbLine
 10
74.17971535840749
 20
-61.97042008510308
 30
0.0
 11
84.25854249286377
 21
-61.97042008510308
 31
0.0
  0
TEXT
  5
9B7F
330
18
100
AcDbEntity
  8
0
100
AcDbText
 10
76.42527398546021
 20
-62.5753661554168
 30
0.0
 40
0.3861619591745689
  1
EDL DISPLAYS INC.
  7
ROMANC
100
AcDbText
  0
LINE
  5
9B80
330
18
100
AcDbEntity
  8
0
100
AcDbLine
 10
74.17971535840749
 20
-63.30589686058179
 30
0.0
 11
84.25854249286377
 21
-63.30589686058179
 31
0.0
  0
TEXT
  5
9B81
330
18
100
AcDbEntity
  8
0
100
AcDbText
 10
74.67163953487951
 20
-62.99864881778646
 30
0.0
 40
0.2574413061163793
  1
1300 Research Park Dr.  Dayton, Ohio 45432
 41
0.9
  7
ROMANC
 72
     1
 11
79.14560166188774
 21
-62.99864881778646
 31
0.0
100
AcDbText
  0
LINE
  5
9B8E
330
18
100
AcDbEntity
  8
0
100
AcDbLine
 10
84.25854249286379
 20
-43.05702472874306
 30
0.0
 11
51.25324158423828
 21
-43.05702472874307
 31
0.0
  0
MTEXT
  5
9B99
102
{ACAD_REACTORS
330
9B9A
102
}
330
18
100
AcDbEntity
  8
DIM
100
AcDbMText
 10
80.06385330949678
 20
-50.90104030498643
 30
0.0
 40
0.3000000000000001
 41
0.0
 71
     1
 72
     1
  1
100mm VESA Mtg
 73
     1
 44
1.0
1001
ACAD
1000
MTEXTBEGIN
1070
    73
1070
     1
1070
    44
1040
1.0
1070
    74
1070
     0
1000
MTEXTEND
1000
MTEXTBEGIN
1070
    73
1070
     1
1070
    44
1040
1.0
1070
    74
1070
     0
1000
MTEXTEND
1000
MTEXTBEGIN
1070
    73
1070
     1
1070
    44
1040
1.0
1070
    74
1070
     0
1000
MTEXTEND
1000
MTEXTBEGIN
1070
    73
1070
     1
1070
    44
1040
1.0
1070
    74
1070
     0
1000
MTEXTEND
1000
MTEXTBEGIN
1070
    73
1070
     1
1070
    44
1040
1.0
1070
    74
1070
     0
1000
MTEXTEND
1000
MTEXTBEGIN
1070
    73
1070
     1
1070
    44
1040
1.0
1070
    74
1070
     0
1000
MTEXTEND
1000
MTEXTBEGIN
1070
    73
1070
     1
1070
    44
1040
1.0
1070
    74
1070
     0
1000
MTEXTEND
1000
MTEXTBEGIN
1070
    73
1070
     1
1070
    44
1040
1.0
1070
    74
1070
     0
1000
MTEXTEND
1000
MTEXTBEGIN
1070
    73
1070
     1
1070
    44
1040
1.0
1070
    74
1070
     0
1000
MTEXTEND
  0
LEADER
  5
9B9A
330
18
100
AcDbEntity
  8
DIM
100
AcDbLeader
  3
STANDARD
 73
     0
 40
0.4000000000000002
 41
4.000000000000001
 76
     3
 10
77.66768483631384
 20
-51.84818148451881
 30
0.0
 10
79.1152142087731
 20
-51.05104030498643
 30
0.0
 10
79.97385330949677
 20
-51.05104030498644
 30
0.0
340
9B99
213
0.0
223
-0.15
233
0.0
1001
ACAD
1000
DSTYLE
1002
{
1070
     5
1000

1070
    77
1070
     0
1070
   147
1040
0.09
1070
   342
1005
0
1002
}
  0
LINE
  5
9B9B
330
18
100
AcDbEntity
  8
0
100
AcDbLine
 10
84.25854249286379
 20
-43.62056114137925
 30
0.0
 11
76.36903271595703
 21
-43.62056114137925
 31
0.0
  0
LINE
  5
9B9C
330
18
100
AcDbEntity
  8
0
100
AcDbLine
 10
84.25854249286379
 20
-43.33879293506115
 30
0.0
 11
76.36903271595703
 21
-43.33879293506115
 31
0.0
  0
LINE
  5
9B9D
330
18
100
AcDbEntity
  8
0
100
AcDbLine
 10
84.25854249286379
 20
-44.2690198692541
 30
0.0
 11
76.36903271595703
 21
-44.2690198692541
 31
0.0
  0
LINE
  5
9B9E
330
18
100
AcDbEntity
  8
0
100
AcDbLine
 10
77.3552214380704
 20
-44.2690198692541
 30
0.0
 11
77.3552214380704
 21
-43.33879293506116
 31
0.0
  0
LINE
  5
9B9F
330
18
100
AcDbEntity
  8
0
100
AcDbLine
 10
76.93256912859324
 20
-44.2690198692541
 30
0.0
 11
76.93256912859324
 21
-43.33879293506116
 31
0.0
  0
LINE
  5
9BA0
330
18
100
AcDbEntity
  8
0
100
AcDbLine
 10
76.36903271595703
 20
-44.2690198692541
 30
0.0
 11
76.36903271595705
 21
-43.05702472874306
 31
0.0
  0
TEXT
  5
9BA6
330
18
100
AcDbEntity
  8
0
100
AcDbText
 10
77.05091177524683
 20
-43.51517983221628
 30
0.0
 40
0.0710055879921611
  1
LTR
  7
ROMANS
 72
     4
 11
77.1438952833318
 21
-43.4796770382202
 31
0.0
100
AcDbText
  0
TEXT
  5
9BA7
330
18
100
AcDbEntity
  8
0
100
AcDbText
 10
76.50878974629081
 20
-43.51517983221628
 30
0.0
 40
0.0710055879921611
  1
ZONE
  7
ROMANS
 72
     4
 11
76.65080092227514
 21
-43.4796770382202
 31
0.0
100
AcDbText
  0
TEXT
  5
9BA8
330
18
100
AcDbEntity
  8
0
100
AcDbText
 10
79.41381995343043
 20
-43.51517983221628
 30
0.0
 40
0.0710055879921611
  1
DESCRIPTION
  7
ROMANS
 72
     4
 11
79.75025119177423
 21
-43.4796770382202
 31
0.0
100
AcDbText
  0
TEXT
  5
9BA9
330
18
100
AcDbEntity
  8
0
100
AcDbText
 10
79.48144432294677
 20
-43.23341162589815
 30
0.0
 40
0.0710055879921611
  1
REVISIONS
  7
ROMANS
 72
     4
 11
79.75025119177423
 21
-43.19790883190207
 31
0.0
100
AcDbText
  0
LINE
  5
9BAA
330
18
100
AcDbEntity
  8
0
100
AcDbLine
 10
83.13146966759143
 20
-44.2690198692541
 30
0.0
 11
83.13146966759143
 21
-43.33879293506115
 31
0.0
  0
LINE
  5
9BAB
330
18
100
AcDbEntity
  8
0
100
AcDbLine
 10
82.14528094547809
 20
-44.2690198692541
 30
0.0
 11
82.14528094547809
 21
-43.33879293506115
 31
0.0
  0
TEXT
  5
9BAC
330
18
100
AcDbEntity
  8
0
100
AcDbText
 10
82.50988900445369
 20
-43.51517983221628
 30
0.0
 40
0.0710055879921611
  1
DATE
  7
ROMANS
 72
     4
 11
82.63837530653475
 21
-43.4796770382202
 31
0.0
100
AcDbText
  0
TEXT
  5
9BAD
330
18
100
AcDbEntity
  8
0
100
AcDbText
 10
83.42619921140014
 20
-43.51517983221628
 30
0.0
 40
0.0710055879921611
  1
APPROVED
  7
ROMANS
 72
     4
 11
83.69500608022761
 21
-43.4796770382202
 31
0.0
100
AcDbText
  0
ARC
  5
9C21
330
18
100
AcDbEntity
  8
Chassis
100
AcDbCircle
 10
58.39550184856889
 20
-63.95030571931006
 30
0.0
 40
0.235
100
AcDbArc
 50
180.0
 51
270.0
  0
LINE
  5
9C22
330
18
100
AcDbEntity
  8
Chassis
100
AcDbLine
 10
59.22050184856892
 20
-64.18530571931005
 30
0.0
 11
58.39550184856889
 21
-64.18530571931007
 31
0.0
  0
ARC
  5
9C23
330
18
100
AcDbEntity
  8
Chassis
100
AcDbCircle
 10
59.22050184856892
 20
-63.95030571931006
 30
0.0
 40
0.235
100
AcDbArc
 50
270.0
 51
0.0000000000008283
  0
DIMENSION
  5
9C25
330
18
100
AcDbEntity
  8
DIM
100
AcDbDimension
  2
*D4
 10
68.28234135910975
 20
-65.32621299741744
 30
0.0
 11
60.40734135910974
 21
-65.32621299741744
 31
0.0
 70
    32
 71
     5
 42
-1.0
  3
STANDARD
100
AcDbAlignedDimension
 13
52.53234135910973
 23
-64.25878136102063
 33
0.0
 14
68.28234135910975
 24
-64.25878136102062
 34
0.0
100
AcDbRotatedDimension
  0
DIMENSION
  5
9C33
330
18
100
AcDbEntity
  8
DIM
100
AcDbDimension
  2
*D5
 10
69.96681563394566
 20
-45.16983768643147
 30
0.0
 11
69.96681563394567
 21
-52.15483768643148
 31
0.0
 70
    32
 71
     5
 42
-1.0
  3
STANDARD
100
AcDbAlignedDimension
 13
68.28234135910974
 23
-59.13983768643149
 33
0.0
 14
68.28234135910969
 24
-45.16983768643147
 34
0.0
 50
90.0
100
AcDbRotatedDimension
  0
DIMENSION
  5
9C41
330
18
100
AcDbEntity
  8
DIM
100
AcDbDimension
  2
*D6
 10
79.13380435991553
 20
-55.70283768643148
 30
0.0
 11
79.13380435991554
 21
-57.42133768643148
 31
0.0
 70
    32
 71
     5
 42
-1.0
  3
STANDARD
100
AcDbAlignedDimension
 13
76.54268483631383
 23
-59.13983768643149
 33
0.0
 14
77.66768483631384
 24
-55.70283768643148
 34
0.0
 50
90.0
100
AcDbRotatedDimension
  0
DIMENSION
  5
9C4F
330
18
100
AcDbEntity
  8
DIM
100
AcDbDimension
  2
*D7
 10
76.54268483631383
 20
-59.94669666004768
 30
0.0
 11
75.85518483631384
 21
-59.94669666004768
 31
0.0
 70
    32
 71
     5
 42
-1.0
  3
STANDARD
100
AcDbAlignedDimension
 13
75.16768483631384
 23
-59.1398376864315
 33
0.0
 14
76.54268483631383
 24
-59.13983768643149
 34
0.0
100
AcDbRotatedDimension
  0
DIMENSION
  5
9C5D
330
18
100
AcDbEntity
  8
DIM
100
AcDbDimension
  2
*D8
 10
69.30395483821444
 20
-61.75878136102061
 30
0.0
 11
69.30395483821445
 21
-63.00878136102061
 31
0.0
 70
    32
 71
     5
 42
-1.0
  3
STANDARD
100
AcDbAlignedDimension
 13
68.28234135910975
 23
-64.25878136102062
 33
0.0
 14
68.28234135910975
 24
-61.75878136102061
 34
0.0
 50
90.0
100
AcDbRotatedDimension
  0
ARC
  5
9C72
330
18
100
AcDbEntity
  8
BEZEL
100
AcDbCircle
 10
75.35468483631382
 20
-58.95283768643149
 30
0.0
 40
0.187
100
AcDbArc
 50
180.0
 51
270.0000000000006
  0
ARC
  5
9C73
330
18
100
AcDbEntity
  8
BEZEL
100
AcDbCircle
 10
68.09534135910974
 20
-58.9528376864315
 30
0.0
 40
0.187
100
AcDbArc
 50
269.9999999999999
 51
0.0000000000001654
  0
ARC
  5
9C74
330
18
100
AcDbEntity
  8
BEZEL
100
AcDbCircle
 10
68.09534135910976
 20
-61.94578136102061
 30
0.0
 40
0.187
100
AcDbArc
 50
0.0
 51
89.99999999999994
  0
ARC
  5
9C75
330
18
100
AcDbEntity
  8
BEZEL
100
AcDbCircle
 10
52.71934135910972
 20
-61.94578136102059
 30
0.0
 40
0.187
100
AcDbArc
 50
89.99999999999994
 51
180.0000000000001
  0
ARC
  5
9C76
330
18
100
AcDbEntity
  8
BEZEL
100
AcDbCircle
 10
52.71934135910973
 20
-58.95283768643148
 30
0.0
 40
0.187
100
AcDbArc
 50
180.0
 51
269.9999999999999
  0
ARC
  5
9C77
330
18
100
AcDbEntity
  8
BEZEL
100
AcDbCircle
 10
52.71934135910973
 20
-45.35683768643147
 30
0.0
 40
0.187
100
AcDbArc
 50
89.99999999999994
 51
180.0
  0
ARC
  5
9C78
330
18
100
AcDbEntity
  8
BEZEL
100
AcDbCircle
 10
68.09534135910969
 20
-45.35683768643148
 30
0.0
 40
0.187
100
AcDbArc
 50
0.0000000000001781
 51
89.99999999999994
  0
ARC
  5
9C79
330
18
100
AcDbEntity
  8
BEZEL
100
AcDbCircle
 10
75.35468483631383
 20
-45.35683768643147
 30
0.0
 40
0.187
100
AcDbArc
 50
90.00000000000017
 51
179.9999999999999
  0
LINE
  5
A043
330
18
100
AcDbEntity
  8
Buttons
100
AcDbLine
 10
57.23733135910975
 20
-58.50983768643148
 30
0.0
 11
57.97733135910975
 21
-58.50983768643148
 31
0.0
  0
LINE
  5
A044
330
18
100
AcDbEntity
  8
Buttons
100
AcDbLine
 10
57.23733135910975
 20
-57.76983768643148
 30
0.0
 11
57.97733135910975
 21
-57.76983768643148
 31
0.0
  0
LINE
  5
A045
330
18
100
AcDbEntity
  8
Buttons
100
AcDbLine
 10
57.90733135910976
 20
-58.43983768643148
 30
0.0
 11
57.90733135910976
 21
-57.83983768643149
 31
0.0
  0
LINE
  5
A046
330
18
100
AcDbEntity
  8
Buttons
100
AcDbLine
 10
57.23733135910975
 20
-58.50983768643148
 30
0.0
 11
57.23733135910975
 21
-57.76983768643148
 31
0.0
  0
LINE
  5
A047
330
18
100
AcDbEntity
  8
Buttons
100
AcDbLine
 10
57.30733135910977
 20
-58.43983768643148
 30
0.0
 11
57.30733135910977
 21
-57.83983768643149
 31
0.0
  0
LINE
  5
A048
330
18
100
AcDbEntity
  8
Buttons
100
AcDbLine
 10
57.30733135910977
 20
-58.43983768643148
 30
0.0
 11
57.90733135910976
 21
-58.43983768643148
 31
0.0
  0
LINE
  5
A049
330
18
100
AcDbEntity
  8
Buttons
100
AcDbLine
 10
57.30733135910977
 20
-57.83983768643149
 30
0.0
 11
57.90733135910976
 21
-57.83983768643149
 31
0.0
  0
LINE
  5
A04A
330
18
100
AcDbEntity
  8
Buttons
100
AcDbLine
 10
57.97733135910975
 20
-58.50983768643148
 30
0.0
 11
57.97733135910975
 21
-57.76983768643148
 31
0.0
  0
LINE
  5
A04C
330
18
100
AcDbEntity
  8
BEZEL
100
AcDbLine
 10
61.90734135910975
 20
-61.67878136102057
 30
0.0
 11
61.90734135910975
 21
-61.71878136102058
 31
0.0
  0
LINE
  5
A04D
330
18
100
AcDbEntity
  8
BEZEL
100
AcDbLine
 10
61.97734135910974
 20
-61.71878136102058
 30
0.0
 11
61.97734135910974
 21
-61.75878136102057
 31
0.0
  0
LINE
  5
A04E
330
18
100
AcDbEntity
  8
BEZEL
100
AcDbLine
 10
61.17734135910973
 20
-61.71878136102058
 30
0.0
 11
61.17734135910973
 21
-61.75878136102057
 31
0.0
  0
LINE
  5
A04F
330
18
100
AcDbEntity
  8
BEZEL
100
AcDbLine
 10
61.10734135910973
 20
-61.67878136102057
 30
0.0
 11
61.10734135910973
 21
-61.71878136102058
 31
0.0
  0
LINE
  5
A050
330
18
100
AcDbEntity
  8
BEZEL
100
AcDbLine
 10
61.30734135910976
 20
-61.67878136102057
 30
0.0
 11
61.30734135910976
 21
-61.71878136102058
 31
0.0
  0
LINE
  5
A051
330
18
100
AcDbEntity
  8
BEZEL
100
AcDbLine
 10
61.23734135910975
 20
-61.71878136102058
 30
0.0
 11
61.23734135910975
 21
-61.75878136102057
 31
0.0
  0
LINE
  5
A052
330
18
100
AcDbEntity
  8
BEZEL
100
AcDbLine
 10
61.90734135910975
 20
-61.67878136102057
 30
0.0
 11
61.30734135910976
 21
-61.67878136102057
 31
0.0
  0
LINE
  5
A053
330
18
100
AcDbEntity
  8
BEZEL
100
AcDbLine
 10
61.97734135910974
 20
-61.71878136102058
 30
0.0
 11
61.23734135910976
 21
-61.71878136102058
 31
0.0
  0
LINE
  5
A054
330
18
100
AcDbEntity
  8
BEZEL
100
AcDbLine
 10
60.43734135910973
 20
-61.71878136102058
 30
0.0
 11
60.43734135910973
 21
-61.75878136102057
 31
0.0
  0
LINE
  5
A055
330
18
100
AcDbEntity
  8
BEZEL
100
AcDbLine
 10
60.50734135910975
 20
-61.67878136102057
 30
0.0
 11
60.50734135910975
 21
-61.71878136102058
 31
0.0
  0
LINE
  5
A056
330
18
100
AcDbEntity
  8
BEZEL
100
AcDbLine
 10
60.37734135910975
 20
-61.71878136102058
 30
0.0
 11
60.37734135910975
 21
-61.75878136102057
 31
0.0
  0
LINE
  5
A057
330
18
100
AcDbEntity
  8
BEZEL
100
AcDbLine
 10
60.30734135910975
 20
-61.67878136102057
 30
0.0
 11
60.30734135910975
 21
-61.71878136102058
 31
0.0
  0
LINE
  5
A058
330
18
100
AcDbEntity
  8
BEZEL
100
AcDbLine
 10
59.57734135910977
 20
-61.71878136102058
 30
0.0
 11
59.57734135910977
 21
-61.75878136102057
 31
0.0
  0
LINE
  5
A059
330
18
100
AcDbEntity
  8
BEZEL
100
AcDbLine
 10
59.50734135910977
 20
-61.67878136102057
 30
0.0
 11
59.50734135910977
 21
-61.71878136102058
 31
0.0
  0
LINE
  5
A05A
330
18
100
AcDbEntity
  8
BEZEL
100
AcDbLine
 10
59.63734135910975
 20
-61.71878136102058
 30
0.0
 11
59.63734135910975
 21
-61.75878136102057
 31
0.0
  0
LINE
  5
A05B
330
18
100
AcDbEntity
  8
BEZEL
100
AcDbLine
 10
59.70734135910976
 20
-61.67878136102057
 30
0.0
 11
59.70734135910976
 21
-61.71878136102058
 31
0.0
  0
LINE
  5
A05C
330
18
100
AcDbEntity
  8
BEZEL
100
AcDbLine
 10
60.37734135910975
 20
-61.71878136102058
 30
0.0
 11
59.63734135910975
 21
-61.71878136102058
 31
0.0
  0
LINE
  5
A05D
330
18
100
AcDbEntity
  8
BEZEL
100
AcDbLine
 10
60.30734135910975
 20
-61.67878136102057
 30
0.0
 11
59.70734135910976
 21
-61.67878136102057
 31
0.0
  0
LINE
  5
A05E
330
18
100
AcDbEntity
  8
BEZEL
100
AcDbLine
 10
58.83734135910977
 20
-61.71878136102058
 30
0.0
 11
58.83734135910977
 21
-61.75878136102057
 31
0.0
  0
LINE
  5
A05F
330
18
100
AcDbEntity
  8
BEZEL
100
AcDbLine
 10
58.90734135910978
 20
-61.67878136102057
 30
0.0
 11
58.90734135910978
 21
-61.71878136102058
 31
0.0
  0
LINE
  5
A060
330
18
100
AcDbEntity
  8
BEZEL
100
AcDbLine
 10
59.57734135910977
 20
-61.71878136102058
 30
0.0
 11
58.83734135910977
 21
-61.71878136102058
 31
0.0
  0
LINE
  5
A061
330
18
100
AcDbEntity
  8
BEZEL
100
AcDbLine
 10
59.50734135910977
 20
-61.67878136102057
 30
0.0
 11
58.90734135910977
 21
-61.67878136102057
 31
0.0
  0
LINE
  5
A062
330
18
100
AcDbEntity
  8
BEZEL
100
AcDbLine
 10
61.17734135910973
 20
-61.71878136102058
 30
0.0
 11
60.43734135910975
 21
-61.71878136102058
 31
0.0
  0
LINE
  5
A063
330
18
100
AcDbEntity
  8
BEZEL
100
AcDbLine
 10
61.10734135910973
 20
-61.67878136102057
 30
0.0
 11
60.50734135910975
 21
-61.67878136102057
 31
0.0
  0
LINE
  5
A064
330
18
100
AcDbEntity
  8
BEZEL
100
AcDbLine
 10
57.97734135910974
 20
-61.71878136102058
 30
0.0
 11
57.97734135910974
 21
-61.75878136102057
 31
0.0
  0
LINE
  5
A065
330
18
100
AcDbEntity
  8
BEZEL
100
AcDbLine
 10
57.90734135910973
 20
-61.67878136102057
 30
0.0
 11
57.90734135910973
 21
-61.71878136102058
 31
0.0
  0
LINE
  5
A066
330
18
100
AcDbEntity
  8
BEZEL
100
AcDbLine
 10
57.23734135910973
 20
-61.71878136102058
 30
0.0
 11
57.23734135910973
 21
-61.75878136102057
 31
0.0
  0
LINE
  5
A067
330
18
100
AcDbEntity
  8
BEZEL
100
AcDbLine
 10
57.30734135910974
 20
-61.67878136102057
 30
0.0
 11
57.30734135910974
 21
-61.71878136102058
 31
0.0
  0
LINE
  5
A068
330
18
100
AcDbEntity
  8
BEZEL
100
AcDbLine
 10
57.97734135910974
 20
-61.71878136102058
 30
0.0
 11
57.23734135910974
 21
-61.71878136102058
 31
0.0
  0
LINE
  5
A069
330
18
100
AcDbEntity
  8
BEZEL
100
AcDbLine
 10
57.90734135910973
 20
-61.67878136102057
 30
0.0
 11
57.30734135910974
 21
-61.67878136102057
 31
0.0
  0
LINE
  5
A06A
330
18
100
AcDbEntity
  8
BEZEL
100
AcDbLine
 10
75.08768483631382
 20
-57.83983768643148
 30
0.0
 11
75.08768483631382
 21
-58.43983768643147
 31
0.0
  0
LINE
  5
A06B
330
18
100
AcDbEntity
  8
BEZEL
100
AcDbLine
 10
75.12768483631383
 20
-57.76983768643148
 30
0.0
 11
75.12768483631382
 21
-58.50983768643147
 31
0.0
  0
LINE
  5
A06C
330
18
100
AcDbEntity
  8
BEZEL
100
AcDbLine
 10
75.08768483631382
 20
-58.43983768643147
 30
0.0
 11
75.12768483631382
 21
-58.43983768643147
 31
0.0
  0
LINE
  5
A06D
330
18
100
AcDbEntity
  8
BEZEL
100
AcDbLine
 10
75.12768483631382
 20
-58.50983768643148
 30
0.0
 11
75.16768483631382
 21
-58.50983768643148
 31
0.0
  0
LINE
  5
A06E
330
18
100
AcDbEntity
  8
BEZEL
100
AcDbLine
 10
75.08768483631382
 20
-57.83983768643148
 30
0.0
 11
75.12768483631383
 21
-57.83983768643148
 31
0.0
  0
LINE
  5
A06F
330
18
100
AcDbEntity
  8
BEZEL
100
AcDbLine
 10
75.12768483631383
 20
-57.76983768643148
 30
0.0
 11
75.16768483631382
 21
-57.76983768643148
 31
0.0
  0
LINE
  5
A146
330
18
100
AcDbEntity
  8
BEZEL
100
AcDbLine
 10
59.11450879867881
 20
-63.74799762866617
 30
0.0
 11
59.11450879867881
 21
-63.94799762866617
 31
0.0
  0
LINE
  5
A147
330
18
100
AcDbEntity
  8
BEZEL
100
AcDbLine
 10
58.51450879867882
 20
-63.74799762866617
 30
0.0
 11
58.51450879867882
 21
-63.94799762866617
 31
0.0
  0
LINE
  5
A148
330
18
100
AcDbEntity
  8
BEZEL
100
AcDbLine
 10
58.81450879867882
 20
-63.54799762866616
 30
0.0
 11
58.81450879867882
 21
-63.74799762866617
 31
0.0
  0
MTEXT
  5
A149
330
18
100
AcDbEntity
  8
silk
100
AcDbMText
 10
59.58810749158502
 20
-63.93590854841896
 30
0.0
 40
0.15
 41
2.0
 71
     1
 72
     5
  1
{\fArial|b0|i0|c0|p34;POWER}
  7
ROMAND
 73
     1
 44
1.0
1001
ACAD
1000
MTEXTBEGIN
1070
    73
1070
     1
1070
    44
1040
1.0
1070
    74
1070
     0
1000
MTEXTEND
1000
MTEXTBEGIN
1070
    73
1070
     1
1070
    44
1040
1.0
1070
    74
1070
     0
1000
MTEXTEND
1000
MTEXTBEGIN
1070
    73
1070
     1
1070
    44
1040
1.0
1070
    74
1070
     0
1000
MTEXTEND
1000
MTEXTBEGIN
1070
    73
1070
     1
1070
    44
1040
1.0
1070
    74
1070
     0
1000
MTEXTEND
1000
MTEXTBEGIN
1070
    73
1070
     1
1070
    44
1040
1.0
1070
    74
1070
     0
1000
MTEXTEND
1000
MTEXTBEGIN
1070
    73
1070
     1
1070
    44
1040
1.0
1070
    74
1070
     0
1000
MTEXTEND
1000
MTEXTBEGIN
1070
    73
1070
     1
1070
    44
1040
1.0
1070
    74
1070
     0
1000
MTEXTEND
1000
MTEXTBEGIN
1070
    73
1070
     1
1070
    44
1040
1.0
1070
    74
1070
     0
1000
MTEXTEND
1000
MTEXTBEGIN
1070
    73
1070
     1
1070
    44
1040
1.0
1070
    74
1070
     0
1000
MTEXTEND
1000
MTEXTBEGIN
1070
    73
1070
     1
1070
    44
1040
1.0
1070
    74
1070
     0
1000
MTEXTEND
1000
MTEXTBEGIN
1070
    73
1070
     1
1070
    44
1040
1.0
1070
    74
1070
     0
1000
MTEXTEND
1000
MTEXTBEGIN
1070
    73
1070
     1
1070
    44
1040
1.0
1070
    74
1070
     0
1000
MTEXTEND
1000
MTEXTBEGIN
1070
    73
1070
     1
1070
    44
1040
1.0
1070
    74
1070
     0
1000
MTEXTEND
1000
MTEXTBEGIN
1070
    73
1070
     1
1070
    44
1040
1.0
1070
    74
1070
     0
1000
MTEXTEND
1000
MTEXTBEGIN
1070
    73
1070
     1
1070
    44
1040
1.0
1070
    74
1070
     0
1000
MTEXTEND
1000
MTEXTBEGIN
1070
    73
1070
     1
1070
    44
1040
1.0
1070
    74
1070
     0
1000
MTEXTEND
1000
MTEXTBEGIN
1070
    73
1070
     1
1070
    44
1040
1.0
1070
    74
1070
     0
1000
MTEXTEND
1000
MTEXTBEGIN
1070
    73
1070
     1
1070
    44
1040
1.0
1070
    74
1070
     0
1000
MTEXTEND
1000
MTEXTBEGIN
1070
    73
1070
     1
1070
    44
1040
1.0
1070
    74
1070
     0
1000
MTEXTEND
1000
MTEXTBEGIN
1070
    73
1070
     1
1070
    44
1040
1.0
1070
    74
1070
     0
1000
MTEXTEND
  0
MTEXT
  5
A14A
330
18
100
AcDbEntity
  8
silk
100
AcDbMText
 10
56.87718157333293
 20
-63.95733551944089
 30
0.0
 40
0.15
 41
2.0
 71
     1
 72
     5
  1
{\fArial|b0|i0|c0|p34;FUSE}
  7
ROMAND
 73
     1
 44
1.0
1001
ACAD
1000
MTEXTBEGIN
1070
    73
1070
     1
1070
    44
1040
1.0
1070
    74
1070
     0
1000
MTEXTEND
1000
MTEXTBEGIN
1070
    73
1070
     1
1070
    44
1040
1.0
1070
    74
1070
     0
1000
MTEXTEND
1000
MTEXTBEGIN
1070
    73
1070
     1
1070
    44
1040
1.0
1070
    74
1070
     0
1000
MTEXTEND
1000
MTEXTBEGIN
1070
    73
1070
     1
1070
    44
1040
1.0
1070
    74
1070
     0
1000
MTEXTEND
1000
MTEXTBEGIN
1070
    73
1070
     1
1070
    44
1040
1.0
1070
    74
1070
     0
1000
MTEXTEND
1000
MTEXTBEGIN
1070
    73
1070
     1
1070
    44
1040
1.0
1070
    74
1070
     0
1000
MTEXTEND
1000
MTEXTBEGIN
1070
    73
1070
     1
1070
    44
1040
1.0
1070
    74
1070
     0
1000
MTEXTEND
1000
MTEXTBEGIN
1070
    73
1070
     1
1070
    44
1040
1.0
1070
    74
1070
     0
1000
MTEXTEND
1000
MTEXTBEGIN
1070
    73
1070
     1
1070
    44
1040
1.0
1070
    74
1070
     0
1000
MTEXTEND
1000
MTEXTBEGIN
1070
    73
1070
     1
1070
    44
1040
1.0
1070
    74
1070
     0
1000
MTEXTEND
1000
MTEXTBEGIN
1070
    73
1070
     1
1070
    44
1040
1.0
1070
    74
1070
     0
1000
MTEXTEND
1000
MTEXTBEGIN
1070
    73
1070
     1
1070
    44
1040
1.0
1070
    74
1070
     0
1000
MTEXTEND
1000
MTEXTBEGIN
1070
    73
1070
     1
1070
    44
1040
1.0
1070
    74
1070
     0
1000
MTEXTEND
1000
MTEXTBEGIN
1070
    73
1070
     1
1070
    44
1040
1.0
1070
    74
1070
     0
1000
MTEXTEND
1000
MTEXTBEGIN
1070
    73
1070
     1
1070
    44
1040
1.0
1070
    74
1070
     0
1000
MTEXTEND
1000
MTEXTBEGIN
1070
    73
1070
     1
1070
    44
1040
1.0
1070
    74
1070
     0
1000
MTEXTEND
1000
MTEXTBEGIN
1070
    73
1070
     1
1070
    44
1040
1.0
1070
    74
1070
     0
1000
MTEXTEND
1000
MTEXTBEGIN
1070
    73
1070
     1
1070
    44
1040
1.0
1070
    74
1070
     0
1000
MTEXTEND
1000
MTEXTBEGIN
1070
    73
1070
     1
1070
    44
1040
1.0
1070
    74
1070
     0
1000
MTEXTEND
1000
MTEXTBEGIN
1070
    73
1070
     1
1070
    44
1040
1.0
1070
    74
1070
     0
1000
MTEXTEND
  0
MTEXT
  5
A14C
330
18
100
AcDbEntity
  8
silk
100
AcDbMText
 10
54.5896236677266
 20
-63.9488928545392
 30
0.0
 40
0.15
 41
2.0
 71
     1
 72
     5
  1
{\fArial|b0|i0|c0|p34;SERIAL 1}
  7
ROMAND
 73
     1
 44
1.0
1001
ACAD
1000
MTEXTBEGIN
1070
    73
1070
     1
1070
    44
1040
1.0
1070
    74
1070
     0
1000
MTEXTEND
1000
MTEXTBEGIN
1070
    73
1070
     1
1070
    44
1040
1.0
1070
    74
1070
     0
1000
MTEXTEND
1000
MTEXTBEGIN
1070
    73
1070
     1
1070
    44
1040
1.0
1070
    74
1070
     0
1000
MTEXTEND
1000
MTEXTBEGIN
1070
    73
1070
     1
1070
    44
1040
1.0
1070
    74
1070
     0
1000
MTEXTEND
1000
MTEXTBEGIN
1070
    73
1070
     1
1070
    44
1040
1.0
1070
    74
1070
     0
1000
MTEXTEND
1000
MTEXTBEGIN
1070
    73
1070
     1
1070
    44
1040
1.0
1070
    74
1070
     0
1000
MTEXTEND
1000
MTEXTBEGIN
1070
    73
1070
     1
1070
    44
1040
1.0
1070
    74
1070
     0
1000
MTEXTEND
1000
MTEXTBEGIN
1070
    73
1070
     1
1070
    44
1040
1.0
1070
    74
1070
     0
1000
MTEXTEND
1000
MTEXTBEGIN
1070
    73
1070
     1
1070
    44
1040
1.0
1070
    74
1070
     0
1000
MTEXTEND
1000
MTEXTBEGIN
1070
    73
1070
     1
1070
    44
1040
1.0
1070
    74
1070
     0
1000
MTEXTEND
1000
MTEXTBEGIN
1070
    73
1070
     1
1070
    44
1040
1.0
1070
    74
1070
     0
1000
MTEXTEND
1000
MTEXTBEGIN
1070
    73
1070
     1
1070
    44
1040
1.0
1070
    74
1070
     0
1000
MTEXTEND
1000
MTEXTBEGIN
1070
    73
1070
     1
1070
    44
1040
1.0
1070
    74
1070
     0
1000
MTEXTEND
1000
MTEXTBEGIN
1070
    73
1070
     1
1070
    44
1040
1.0
1070
    74
1070
     0
1000
MTEXTEND
1000
MTEXTBEGIN
1070
    73
1070
     1
1070
    44
1040
1.0
1070
    74
1070
     0
1000
MTEXTEND
1000
MTEXTBEGIN
1070
    73
1070
     1
1070
    44
1040
1.0
1070
    74
1070
     0
1000
MTEXTEND
1000
MTEXTBEGIN
1070
    73
1070
     1
1070
    44
1040
1.0
1070
    74
1070
     0
1000
MTEXTEND
1000
MTEXTBEGIN
1070
    73
1070
     1
1070
    44
1040
1.0
1070
    74
1070
     0
1000
MTEXTEND
1000
MTEXTBEGIN
1070
    73
1070
     1
1070
    44
1040
1.0
1070
    74
1070
     0
1000
MTEXTEND
1000
MTEXTBEGIN
1070
    73
1070
     1
1070
    44
1040
1.0
1070
    74
1070
     0
1000
MTEXTEND
  0
MTEXT
  5
A14D
330
18
100
AcDbEntity
  8
silk
100
AcDbMText
 10
54.5896236677266
 20
-63.9488928545392
 30
0.0
 40
0.15
 41
2.0
 71
     1
 72
     5
  1
{\fArial|b0|i0|c0|p34;SERIAL 1}
  7
ROMAND
 73
     1
 44
1.0
1001
ACAD
1000
MTEXTBEGIN
1070
    73
1070
     1
1070
    44
1040
1.0
1070
    74
1070
     0
1000
MTEXTEND
1000
MTEXTBEGIN
1070
    73
1070
     1
1070
    44
1040
1.0
1070
    74
1070
     0
1000
MTEXTEND
1000
MTEXTBEGIN
1070
    73
1070
     1
1070
    44
1040
1.0
1070
    74
1070
     0
1000
MTEXTEND
1000
MTEXTBEGIN
1070
    73
1070
     1
1070
    44
1040
1.0
1070
    74
1070
     0
1000
MTEXTEND
1000
MTEXTBEGIN
1070
    73
1070
     1
1070
    44
1040
1.0
1070
    74
1070
     0
1000
MTEXTEND
1000
MTEXTBEGIN
1070
    73
1070
     1
1070
    44
1040
1.0
1070
    74
1070
     0
1000
MTEXTEND
1000
MTEXTBEGIN
1070
    73
1070
     1
1070
    44
1040
1.0
1070
    74
1070
     0
1000
MTEXTEND
1000
MTEXTBEGIN
1070
    73
1070
     1
1070
    44
1040
1.0
1070
    74
1070
     0
1000
MTEXTEND
1000
MTEXTBEGIN
1070
    73
1070
     1
1070
    44
1040
1.0
1070
    74
1070
     0
1000
MTEXTEND
1000
MTEXTBEGIN
1070
    73
1070
     1
1070
    44
1040
1.0
1070
    74
1070
     0
1000
MTEXTEND
1000
MTEXTBEGIN
1070
    73
1070
     1
1070
    44
1040
1.0
1070
    74
1070
     0
1000
MTEXTEND
1000
MTEXTBEGIN
1070
    73
1070
     1
1070
    44
1040
1.0
1070
    74
1070
     0
1000
MTEXTEND
1000
MTEXTBEGIN
1070
    73
1070
     1
1070
    44
1040
1.0
1070
    74
1070
     0
1000
MTEXTEND
1000
MTEXTBEGIN
1070
    73
1070
     1
1070
    44
1040
1.0
1070
    74
1070
     0
1000
MTEXTEND
1000
MTEXTBEGIN
1070
    73
1070
     1
1070
    44
1040
1.0
1070
    74
1070
     0
1000
MTEXTEND
1000
MTEXTBEGIN
1070
    73
1070
     1
1070
    44
1040
1.0
1070
    74
1070
     0
1000
MTEXTEND
1000
MTEXTBEGIN
1070
    73
1070
     1
1070
    44
1040
1.0
1070
    74
1070
     0
1000
MTEXTEND
1000
MTEXTBEGIN
1070
    73
1070
     1
1070
    44
1040
1.0
1070
    74
1070
     0
1000
MTEXTEND
1000
MTEXTBEGIN
1070
    73
1070
     1
1070
    44
1040
1.0
1070
    74
1070
     0
1000
MTEXTEND
1000
MTEXTBEGIN
1070
    73
1070
     1
1070
    44
1040
1.0
1070
    74
1070
     0
1000
MTEXTEND
  0
MTEXT
  5
A14E
330
18
100
AcDbEntity
  8
silk
100
AcDbMText
 10
53.08229396750174
 20
-63.950915933029
 30
0.0
 40
0.15
 41
2.0
 71
     1
 72
     5
  1
{\fArial|b0|i0|c0|p34;VIDEO IN}
  7
ROMAND
 73
     1
 44
1.0
1001
ACAD
1000
MTEXTBEGIN
1070
    73
1070
     1
1070
    44
1040
1.0
1070
    74
1070
     0
1000
MTEXTEND
1000
MTEXTBEGIN
1070
    73
1070
     1
1070
    44
1040
1.0
1070
    74
1070
     0
1000
MTEXTEND
1000
MTEXTBEGIN
1070
    73
1070
     1
1070
    44
1040
1.0
1070
    74
1070
     0
1000
MTEXTEND
1000
MTEXTBEGIN
1070
    73
1070
     1
1070
    44
1040
1.0
1070
    74
1070
     0
1000
MTEXTEND
1000
MTEXTBEGIN
1070
    73
1070
     1
1070
    44
1040
1.0
1070
    74
1070
     0
1000
MTEXTEND
1000
MTEXTBEGIN
1070
    73
1070
     1
1070
    44
1040
1.0
1070
    74
1070
     0
1000
MTEXTEND
1000
MTEXTBEGIN
1070
    73
1070
     1
1070
    44
1040
1.0
1070
    74
1070
     0
1000
MTEXTEND
1000
MTEXTBEGIN
1070
    73
1070
     1
1070
    44
1040
1.0
1070
    74
1070
     0
1000
MTEXTEND
1000
MTEXTBEGIN
1070
    73
1070
     1
1070
    44
1040
1.0
1070
    74
1070
     0
1000
MTEXTEND
1000
MTEXTBEGIN
1070
    73
1070
     1
1070
    44
1040
1.0
1070
    74
1070
     0
1000
MTEXTEND
1000
MTEXTBEGIN
1070
    73
1070
     1
1070
    44
1040
1.0
1070
    74
1070
     0
1000
MTEXTEND
1000
MTEXTBEGIN
1070
    73
1070
     1
1070
    44
1040
1.0
1070
    74
1070
     0
1000
MTEXTEND
1000
MTEXTBEGIN
1070
    73
1070
     1
1070
    44
1040
1.0
1070
    74
1070
     0
1000
MTEXTEND
1000
MTEXTBEGIN
1070
    73
1070
     1
1070
    44
1040
1.0
1070
    74
1070
     0
1000
MTEXTEND
1000
MTEXTBEGIN
1070
    73
1070
     1
1070
    44
1040
1.0
1070
    74
1070
     0
1000
MTEXTEND
1000
MTEXTBEGIN
1070
    73
1070
     1
1070
    44
1040
1.0
1070
    74
1070
     0
1000
MTEXTEND
1000
MTEXTBEGIN
1070
    73
1070
     1
1070
    44
1040
1.0
1070
    74
1070
     0
1000
MTEXTEND
1000
MTEXTBEGIN
1070
    73
1070
     1
1070
    44
1040
1.0
1070
    74
1070
     0
1000
MTEXTEND
1000
MTEXTBEGIN
1070
    73
1070
     1
1070
    44
1040
1.0
1070
    74
1070
     0
1000
MTEXTEND
1000
MTEXTBEGIN
1070
    73
1070
     1
1070
    44
1040
1.0
1070
    74
1070
     0
1000
MTEXTEND
  0
ENDSEC
  0
SECTION
  2
OBJECTS
  0
DICTIONARY
  5
C
330
0
100
AcDbDictionary
281
     1
  3
ACAD_GROUP
350
D
  3
ACAD_LAYOUT
350
12AE
  3
ACAD_MLINESTYLE
350
1B
  3
ACAD_PLOTSETTINGS
350
12AF
  3
ACAD_PLOTSTYLENAME
350
12AC
  3
AcadDim
350
6E22
  3
AcDbVariableDictionary
350
1885
  3
DWGPROPS
350
8A83
  0
DICTIONARY
  5
130A
330
18
100
AcDbDictionary
280
     1
281
     1
  3
ACAD_LAYOUTSELFREF
360
A205
  0
DICTIONARY
  5
1308
330
15
100
AcDbDictionary
280
     1
281
     1
  3
ACAD_LAYOUTSELFREF
360
A204
  0
DICTIONARY
  5
D
102
{ACAD_REACTORS
330
C
102
}
330
C
100
AcDbDictionary
281
     1
  0
DICTIONARY
  5
12AE
102
{ACAD_REACTORS
330
C
102
}
330
C
100
AcDbDictionary
281
     1
  3
Layout1
350
12B1
  3
Model
350
12B0
  0
DICTIONARY
  5
1B
102
{ACAD_REACTORS
330
C
102
}
330
C
100
AcDbDictionary
281
     1
  3
STANDARD
350
1C
  0
DICTIONARY
  5
12AF
102
{ACAD_REACTORS
330
C
102
}
330
C
100
AcDbDictionary
281
     1
  0
ACDBDICTIONARYWDFLT
  5
12AC
102
{ACAD_REACTORS
330
C
102
}
330
C
100
AcDbDictionary
281
     1
  3
Normal
350
12AD
100
AcDbDictionaryWithDefault
340
12AD
  0
XRECORD
  5
6E22
102
{ACAD_REACTORS
330
C
102
}
330
C
100
AcDbXrecord
280
     1
 90
   990106
  3

 60
     0
 61
     0
 62
     1
 63
     3
 64
     0
 65
     0
 66
     0
 67
     3
 68
     1
 69
     0
 70
     0
 71
     0
 72
     0
 40
0.0
170
     0
  0
DICTIONARY
  5
1885
102
{ACAD_REACTORS
330
C
102
}
330
C
100
AcDbDictionary
281
     1
  3
DIMASSOC
350
1886
  3
SORTENTS
350
29C4
  0
XRECORD
  5
8A83
102
{ACAD_REACTORS
330
C
102
}
330
C
100
AcDbXrecord
280
     1
  1
DWGPROPS COOKIE
  2

  3

  4

  6

  7

  8
Charles W. McIntire
  9

300
=
301
=
302
=
303
=
304
=
305
=
306
=
307
=
308
=
309
=
 40
18.2773411111111
 41
2452200.721232638
 42
2452682.872310139
  1

 90
        0
  0
XRECORD
  5
A205
102
{ACAD_REACTORS
330
130A
102
}
330
130A
100
AcDbXrecord
280
     1
340
18
  0
XRECORD
  5
A204
102
{ACAD_REACTORS
330
1308
102
}
330
1308
100
AcDbXrecord
280
     1
340
15
  0
LAYOUT
  5
12B1
102
{ACAD_REACTORS
330
12AE
102
}
330
12AE
100
AcDbPlotSettings
  1

  2
HP LaserJet 5L PCL
  4

  6

 40
0.0
 41
0.0
 42
0.0
 43
0.0
 44
0.0
 45
0.0
 46
0.0
 47
0.0
 48
0.0
 49
0.0
140
0.0
141
0.0
142
1.0
143
1.0
 70
   688
 72
     0
 73
     0
 74
     5
  7
monochrome.ctb
 75
    16
147
1.0
148
0.0
149
0.0
100
AcDbLayout
  1
Layout1
 70
     1
 71
     1
 10
0.0
 20
0.0
 11
12.0
 21
9.0
 12
0.0
 22
0.0
 32
0.0
 14
1.000000000000000E+20
 24
1.000000000000000E+20
 34
1.000000000000000E+20
 15
-1.000000000000000E+20
 25
-1.000000000000000E+20
 35
-1.000000000000000E+20
146
0.0
 13
0.0
 23
0.0
 33
0.0
 16
1.0
 26
0.0
 36
0.0
 17
0.0
 27
1.0
 37
0.0
 76
     0
330
15
  0
LAYOUT
  5
12B0
102
{ACAD_REACTORS
330
12AE
102
}
330
12AE
100
AcDbPlotSettings
  1

  2
Frontdesk HP 2100
  4
Letter
  6

 40
5.027083396911621
 41
5.027085304260253
 42
5.027084350585937
 43
5.027069091796875
 44
215.8999938964843
 45
279.3999938964843
 46
5.08
 47
0.0
 48
51.25324158423828
 49
-67.03879579926928
140
84.25854249286379
141
-43.05702472874307
142
1.0
143
3.112484100864525
 70
 11956
 72
     0
 73
     1
 74
     4
  7
monochrome.ctb
 75
     0
147
0.3212867817452431
148
-1301.832336239652
149
1702.785413301439
100
AcDbLayout
  1
Model
 70
     1
 71
     0
 10
0.0
 20
0.0
 11
12.0
 21
9.0
 12
0.0
 22
0.0
 32
0.0
 14
0.0
 24
0.0
 34
0.0
 15
0.0
 25
0.0
 35
0.0
146
0.0
 13
0.0
 23
0.0
 33
0.0
 16
1.0
 26
0.0
 36
0.0
 17
0.0
 27
1.0
 37
0.0
 76
     0
330
18
  0
MLINESTYLE
  5
1C
102
{ACAD_REACTORS
330
1B
102
}
330
1B
100
AcDbMlineStyle
  2
STANDARD
 70
     0
  3

 62
   256
 51
90.0
 52
90.0
 71
     2
 49
0.5
 62
   256
  6
BYLAYER
 49
-0.5
 62
   256
  6
BYLAYER
  0
ACDBPLACEHOLDER
  5
12AD
102
{ACAD_REACTORS
330
12AC
102
}
330
12AC
  0
DICTIONARYVAR
  5
1886
102
{ACAD_REACTORS
330
1885
102
}
330
1885
100
DictionaryVariables
280
     0
  1
1
  0
DICTIONARYVAR
  5
29C4
102
{ACAD_REACTORS
330
1885
102
}
330
1885
100
DictionaryVariables
280
     0
  1
101
  0
ENDSEC
  0
EOF
